<?xml version="1.0" standalone="no"?>
<!DOCTYPE svg PUBLIC "-//W3C//DTD SVG 1.1//EN" "http://www.w3.org/Graphics/SVG/1.1/DTD/svg11.dtd" >
<svg xmlns="http://www.w3.org/2000/svg">
<metadata>Generated by IcoMoon</metadata>
<defs>
<font id="icomoon" horiz-adv-x="1024">
<font-face units-per-em="1024" ascent="960" descent="-64" />
<missing-glyph horiz-adv-x="1024" />
<glyph unicode="&#x20;" horiz-adv-x="512" d="" />
<glyph unicode="&#xe900;" glyph-name="metrics" horiz-adv-x="904" d="M903.529 714.842c0.184 1.357 0.288 2.925 0.288 4.518s-0.105 3.161-0.308 4.698l0.019-0.18v4.819l-3.614 4.819-450.56 223.473c-3.878 1.898-8.438 3.008-13.258 3.008-5.289 0-10.267-1.337-14.612-3.691l0.162 0.080-403.576-214.438-8.433-5.421-3.614-3.614v-3.614l-6.024-4.216v-6.024c-0.081-0.902-0.128-1.952-0.128-3.012s0.046-2.11 0.137-3.146l-0.010 0.134v-530.071c0-0.024 0-0.053 0-0.082 0-12.46 7.005-23.283 17.292-28.746l0.176-0.085 422.249-218.052c1.811-0.365 3.893-0.573 6.024-0.573s4.212 0.209 6.226 0.607l-0.203-0.033c1.539-0.297 3.31-0.467 5.12-0.467s3.581 0.17 5.296 0.495l-0.176-0.028 421.647 216.847c11.779 5.066 19.878 16.57 19.878 29.967 0 0.053 0 0.106 0 0.159v-0.008 531.878zM421.647 478.118v-457.788l-361.412 182.513v455.981zM801.129 712.433l-349.365-180.706-351.774 180.706 336.113 180.706zM843.294 658.824v-457.788l-361.412-181.308v458.391z" />
<glyph unicode="&#xe901;" glyph-name="dashboard" horiz-adv-x="1152" d="M595.84 272c29.514 0 53.44 23.926 53.44 53.44s-23.926 53.44-53.44 53.44v0l-235.52 177.28 183.68-236.16c1.375-27.798 23.922-49.899 51.777-50.559l0.063-0.001zM576 960c-318.981-3.95-576.043-263.454-576.043-582.998 0-2.49 0.016-4.977 0.047-7.459l-0.004 0.377c-0.001-0.32-0.001-0.699-0.001-1.079 0-121.72 36.303-234.96 98.672-329.485l-1.391 2.244h71.68l99.84 89.6-42.88 60.8-92.8-83.2c-43.298 75.079-68.92 165.086-69.12 261.061v0.059c0 4.48 0 8.32 0 14.080h113.92v74.24h-106.88c15.226 94.218 53.304 177.58 108.354 246.847l-0.834-1.087 77.44-84.48 51.84 53.12-78.72 83.84c78.141 75.885 180.983 126.718 295.338 139.318l2.262 0.202v-138.24h72.96v138.24c128.93-6.282 244.204-60.063 329.672-144.070l-0.072 0.070-83.2-85.76 51.84-53.12 81.28 83.2c50.639-65.996 86.543-145.911 101.319-233.017l0.441-3.143h-111.36v-76.16h118.4c0-4.48 0-8.96 0-13.44 0.001-0.402 0.002-0.877 0.002-1.353 0-96.229-25.65-186.468-70.485-264.252l1.363 2.565-87.68 89.6-51.2-53.12 97.28-99.84h78.080c60.527 91.917 96.576 204.622 96.64 325.743v0.017c0.027 2.105 0.043 4.592 0.043 7.082 0 319.544-257.063 579.048-575.67 582.994l-0.373 0.004zM314.24 74.24h519.040v-138.24h-519.040v138.24z" />
<glyph unicode="&#xe902;" glyph-name="sidebar-menu" horiz-adv-x="1317" d="M0 960h1316.571v-146.286h-1316.571v146.286zM0 521.143h1316.571v-146.286h-1316.571v146.286zM0 82.286h1316.571v-146.286h-1316.571v146.286z" />
<glyph unicode="&#xe903;" glyph-name="devices" d="M915.866 360.892h-361.335v172.032c0 23.62-19.046 42.667-42.667 42.667s-42.667-19.046-42.667-42.667v-172.032h-361.335c-59.529 0-108.066-48.469-108.066-108.066v-208.759c0-59.597 48.469-108.066 108.066-108.066h808.141c59.597 0 108.066 48.469 108.066 108.066v208.759c-0.137 59.597-48.674 108.066-108.203 108.066zM938.598 44.066c0-12.561-10.24-22.596-22.596-22.596h-808.141c-12.561 0-22.596 10.24-22.596 22.596v208.759c0 12.561 10.24 22.596 22.596 22.596h808.141c12.561 0 22.596-10.24 22.596-22.596v-208.759zM303.309 788.446c114.961 114.961 302.012 114.961 417.178 0 8.329-8.329 19.251-12.561 30.106-12.561s21.982 4.164 30.106 12.561c16.725 16.725 16.725 43.691 0 60.416-148.139 148.207-389.325 148.207-537.737 0-16.725-16.725-16.725-43.691 0-60.416 16.657-16.725 43.622-16.725 60.348 0v0zM382.908 709.052c-16.725-16.725-16.725-43.691 0-60.416 8.329-8.329 19.251-12.561 30.106-12.561s21.709 4.164 30.106 12.561c37.82 37.82 99.465 37.82 137.284 0 16.725-16.725 43.691-16.725 60.416 0s16.725 43.691 0 60.416c-71.066 71.066-186.846 71.066-257.911 0v0zM540.74 191.181h-57.685c-23.62 0-42.667-18.978-42.667-42.667 0-23.62 19.046-42.667 42.667-42.667h57.685c23.62 0 42.667 19.046 42.667 42.667-0.068 23.62-19.046 42.667-42.667 42.667v0z" />
<glyph unicode="&#xe904;" glyph-name="search" d="M1015.296-12.8l-247.296 249.856c66.662 76.339 107.312 176.887 107.312 286.928 0 241.485-195.763 437.248-437.248 437.248s-437.248-195.763-437.248-437.248c0-241.485 195.763-437.248 437.248-437.248 110.041 0 210.589 40.65 287.444 107.753l-0.516-0.441 247.808-248.832c5.48-5.589 13.071-9.092 21.481-9.216h0.023c8.455 0 16.085 3.533 21.493 9.204l0.011 0.012c5.43 5.537 8.782 13.129 8.782 21.504s-3.351 15.967-8.786 21.509l0.005-0.005zM60.928 523.264c0.292 207.050 168.205 374.784 375.296 374.784 207.27 0 375.296-168.026 375.296-375.296s-168.026-375.296-375.296-375.296v0c-207.333 0.292-375.296 168.435-375.296 375.808 0 0 0 0 0 0.001v0z" />
<glyph unicode="&#xe905;" glyph-name="download" d="M881.664 307.2v-233.984h-739.328v233.984h-142.336v-302.592c0.567-38.021 31.522-68.625 69.625-68.625 0.543 0 1.084 0.006 1.623 0.019l-0.080-0.001h881.664c0.309-0.005 0.675-0.008 1.041-0.008 38.202 0 69.271 30.539 70.126 68.536l0.001 0.080v302.592zM499.2 330.24l-204.8 238.080s-31.232 28.16 2.56 28.16h115.712v346.624s-3.072 16.896 22.016 16.896h161.28c18.432 0 18.432-14.336 18.432-14.336v-344.064h105.984c40.448 0 10.24-29.696 10.24-29.696s-173.056-222.72-197.632-245.76c-4.22-4.543-10.227-7.376-16.896-7.376s-12.676 2.833-16.883 7.361l-0.013 0.014z" />
<glyph unicode="&#xe906;" glyph-name="error" d="M512 960c-282.77 0-512-229.23-512-512s229.23-512 512-512c282.77 0 512 229.23 512 512v0c0 282.77-229.23 512-512 512v0zM710.827 277.333c3.713-3.713 6.009-8.841 6.009-14.507 0-11.33-9.185-20.516-20.516-20.516-5.665 0-10.794 2.296-14.507 6.009l-170.667 170.667-170.667-170.667c-2.926-1.708-6.442-2.717-10.194-2.717-11.311 0-20.48 9.169-20.48 20.48 0 4.188 1.257 8.082 3.414 11.326l-0.047-0.075 170.667 170.667-170.667 170.667c-1.892 3.044-3.013 6.738-3.013 10.693 0 11.311 9.169 20.48 20.48 20.48 3.956 0 7.65-1.122 10.781-3.064l-0.087 0.050 170.667-170.667 170.667 170.667c3.713 3.713 8.841 6.009 14.507 6.009 11.33 0 20.516-9.185 20.516-20.516 0-5.665-2.296-10.794-6.009-14.507l-170.667-170.667z" />
<glyph unicode="&#xe907;" glyph-name="success" d="M512 960c-282.77 0-512-229.23-512-512s229.23-512 512-512c282.77 0 512 229.23 512 512v0c0 282.77-229.23 512-512 512v0zM793.6 639.147l-327.68-368.64c-3.774-4.302-9.282-7.004-15.421-7.004-4.834 0-9.276 1.675-12.779 4.475l0.041-0.032-204.8 163.84c-4.705 3.787-7.69 9.545-7.69 16 0 11.316 9.174 20.49 20.49 20.49 4.861 0 9.327-1.693 12.84-4.521l-0.040 0.031 189.44-151.467 314.88 354.133c3.782 4.24 9.26 6.898 15.36 6.898 11.35 0 20.551-9.201 20.551-20.551 0-5.25-1.969-10.041-5.209-13.674l0.018 0.020z" />
<glyph unicode="&#xe908;" glyph-name="chevron" horiz-adv-x="2048" d="M1024-64l-1024 1024h2048l-1024-1024z" />
<glyph unicode="&#xe909;" glyph-name="pin-to-dashboard" d="M262.656 283.648c-34.816 44.544-69.632 86.528-102.4 130.56-26.529 33.881-47.527 73.596-60.757 116.71l-0.683 2.586c-1.983 6.972-3.605 15.317-4.545 23.867l-0.063 0.709c-0.452 2.369-0.711 5.094-0.711 7.879 0 24.318 19.714 44.032 44.032 44.032 2.785 0 5.51-0.259 8.151-0.753l-0.273 0.042c21.743-1.534 41.945-6.284 60.749-13.79l-1.357 0.478c27.648-12.8 51.2-29.184 79.872-44.032 5.12-3.072 8.192-3.584 12.8 0l268.288 269.824c-8.704 18.944-17.92 37.376-25.6 56.832-4.336 10.678-7.26 23.044-8.17 35.966l-0.022 0.386c-1.052 3.269-1.658 7.030-1.658 10.932 0 20.359 16.505 36.864 36.864 36.864 5.029 0 9.822-1.007 14.19-2.83l-0.244 0.090c22.054-4.396 41.587-10.944 59.927-19.606l-1.559 0.662c46.49-23.671 86.541-51.46 122.325-83.874l-0.469 0.418c78.42-65.034 146.713-138.041 204.99-218.759l2.37-3.449c22.678-29.937 40.277-65.146 50.699-103.318l0.501-2.154c1.536-6.12 2.464-13.168 2.559-20.417l0.001-0.063c0.094-0.978 0.147-2.115 0.147-3.264 0-20.077-16.275-36.352-36.352-36.352-1.314 0-2.612 0.070-3.89 0.206l0.159-0.014c-29.048 2.299-55.575 11.331-78.581 25.523l0.757-0.435-15.872 8.704-274.432-277.504c10.24-17.408 22.016-35.84 32.768-54.784 13.761-23.61 23.66-51.232 28.007-80.662l0.153-1.258c0.918-3.416 1.445-7.339 1.445-11.385 0-25.167-20.401-45.568-45.568-45.568-3.599 0-7.1 0.417-10.458 1.206l0.309-0.061c-28.672 3.545-54.642 12.419-77.824 25.625l1.024-0.537c-70.738 38.455-131.752 82.654-186.384 133.607l0.528-0.487-9.216 8.192-320.512-264.192-28.672 30.72zM572.928 725.504q-102.4-102.4-204.8-204.8l-5.12-5.632c-4.459-5.487-7.16-12.56-7.16-20.264 0-6.131 1.71-11.862 4.68-16.743l-0.081 0.143c5.122-9.358 14.9-15.598 26.136-15.598 2.352 0 4.639 0.273 6.833 0.79l-0.201-0.040c8.637 2.488 16.049 6.919 22.022 12.806l-0.006-0.006q102.4 102.4 201.728 201.216c3.069 3.007 5.775 6.364 8.059 10.013l0.133 0.227c2.871 4.586 4.574 10.158 4.574 16.128s-1.703 11.542-4.649 16.257l0.075-0.129c-6.355 9.228-16.862 15.2-28.764 15.2-9.297 0-17.743-3.644-23.987-9.581l0.015 0.014z" />
<glyph unicode="&#xe90a;" glyph-name="add" d="M512 960c-282.77 0-512-229.23-512-512s229.23-512 512-512c282.77 0 512 229.23 512 512v0c0 282.77-229.23 512-512 512v0zM758.272 408.576h-204.8v-216.576c0-21.773-17.651-39.424-39.424-39.424s-39.424 17.651-39.424 39.424v216.576h-204.8c-21.773 0-39.424 17.651-39.424 39.424s17.651 39.424 39.424 39.424h204.8v197.12c0 21.773 17.651 39.424 39.424 39.424s39.424-17.651 39.424-39.424v0-197.12h204.8c21.773 0 39.424-17.651 39.424-39.424s-17.651-39.424-39.424-39.424v0z" />
<glyph unicode="&#xe90b;" glyph-name="log" horiz-adv-x="887" d="M199.68-64c-8.757 2.809-16.099 5.816-23.158 9.309l0.971-0.435c-18.68 9.887-31.293 29.020-31.743 51.139l-0.001 0.061c0 37.888 0 76.117 0 114.688h47.787q0-5.461 0-10.581c0-32.427 0-64.512 0-96.939 0-13.653 5.803-19.456 19.456-19.456h606.208c14.336 0 20.139 5.803 20.139 20.139q0 344.064 0 687.787c0 9.899-3.755 12.629-12.971 12.288h-124.245c-1.484-0.115-3.214-0.18-4.959-0.18-37.703 0-68.267 30.564-68.267 68.267 0 1.745 0.065 3.475 0.194 5.187l-0.014-0.228c0 40.96 0 81.92 0 122.88 0 9.216-2.731 12.288-12.288 12.288h-402.773c-15.019 0-20.48-5.461-20.48-20.48q0-170.667 0-341.333c0-6.485 0-13.312 0-20.821h-48.128c0 3.413 0 6.485 0 9.899q0 176.128 0 351.915c-0.158 1.691-0.249 3.656-0.249 5.643 0 31.060 22.067 56.966 51.378 62.895l0.412 0.070h448.853l234.837-233.131c4.221-3.882 6.857-9.43 6.857-15.595 0-0.398-0.011-0.793-0.033-1.185l0.002 0.055c0-44.032 0-88.064 0-132.096q0-288.085 0-575.829c0.025-0.664 0.039-1.444 0.039-2.227 0-30.305-21.12-55.678-49.444-62.202l-0.43-0.083-4.779-1.707zM742.059 413.867c0.069 0.965 0.108 2.092 0.108 3.227 0 26.58-21.548 48.128-48.128 48.128-1.36 0-2.706-0.056-4.037-0.167l0.174 0.012h-638.293c-1.157 0.099-2.503 0.155-3.863 0.155-26.58 0-48.128-21.548-48.128-48.128 0-1.136 0.039-2.262 0.117-3.378l-0.008 0.151q0-92.16 0-183.979c-0.306-2.046-0.481-4.408-0.481-6.81 0-26.769 21.7-48.469 48.469-48.469 1.974 0 3.92 0.118 5.832 0.347l-0.231-0.023h638.293c0.723-0.039 1.57-0.061 2.422-0.061 26.392 0 47.787 21.395 47.787 47.787 0 0.622-0.012 1.241-0.035 1.857l0.003-0.089q0 94.891 0 189.44zM257.024 243.2h-76.459c-12.288 0-17.749 4.779-17.749 16.725q0 59.051 0 117.76c-0.090 0.618-0.142 1.332-0.142 2.058 0 8.104 6.419 14.709 14.45 15.008l0.027 0.001c8.533 0 14.677-5.803 15.701-16.043 0.089-1.479 0.14-3.208 0.14-4.949s-0.051-3.47-0.151-5.186l0.011 0.237q0-44.373 0-89.088v-11.947h64.853c0.229 0.016 0.497 0.025 0.766 0.025 6.409 0 11.605-5.196 11.605-11.605 0-0.49-0.030-0.973-0.089-1.447l0.006 0.057c-0.341-6.827-5.803-11.605-12.971-11.605zM416.085 292.352c-6.011-29.709-31.91-51.761-62.959-51.761-1.868 0-3.718 0.080-5.545 0.236l0.238-0.016c-1.687-0.141-3.651-0.222-5.635-0.222-39.588 0-71.68 32.092-71.68 71.68 0 6.759 0.936 13.3 2.684 19.5l-0.122-0.505c3.526 37.37 34.746 66.379 72.741 66.379 13.156 0 25.5-3.478 36.162-9.565l-0.359 0.189c17.95-7.887 30.933-24.149 34.089-43.701l0.044-0.331c1.522-7.991 2.392-17.182 2.392-26.577 0-8.697-0.746-17.22-2.178-25.508l0.127 0.886zM571.392 255.488c-15.529-9.407-34.294-14.974-54.359-14.974-8.935 0-17.613 1.104-25.903 3.183l0.732-0.155c-28.786 7.413-49.979 32.431-51.535 62.64l-0.007 0.166c-0.169 2.393-0.266 5.184-0.266 7.999 0 10.496 1.342 20.678 3.864 30.385l-0.185-0.837c8.857 30.665 36.676 52.711 69.643 52.711 4.581 0 9.063-0.426 13.408-1.24l-0.448 0.070c15.871-0.487 30.19-6.757 41.002-16.763l-0.042 0.038c4.696-5.205 8.507-11.319 11.126-18.030l0.138-0.402c0.691-1.392 1.095-3.032 1.095-4.766 0-5.088-3.478-9.363-8.187-10.577l-0.076-0.017c-1.106-0.127-2.387-0.2-3.686-0.2-4.704 0-9.186 0.952-13.264 2.673l0.224-0.084c-1.707 0-3.072 3.413-4.096 5.461-6.482 12.125-19.056 20.234-33.524 20.234-3.247 0-6.398-0.408-9.405-1.177l0.262 0.057c-17.861-2.274-31.859-16.272-34.113-33.938l-0.020-0.195c-1.113-5.799-1.749-12.468-1.749-19.285s0.637-13.487 1.854-19.951l-0.104 0.666c4.343-20.311 22.139-35.321 43.44-35.321 5.995 0 11.712 1.189 16.929 3.344l-0.295-0.108c21.504 5.12 22.869 7.509 20.821 34.133h-26.624c-7.509 0-13.653 2.731-12.971 11.605s6.485 10.923 13.995 10.923h37.205c12.288 0 17.067-5.12 17.067-17.408s0-19.456 0-29.013c0.096-0.744 0.15-1.604 0.15-2.477 0-8.274-4.907-15.402-11.969-18.633l-0.128-0.052zM302.763 320c1.323 8.319 2.868 15.35 4.77 22.234l-0.333-1.412c4.173 17.538 19.705 30.38 38.237 30.38 0.117 0 0.234-0.001 0.351-0.002h-0.018c0.345 0.011 0.75 0.017 1.156 0.017 18.669 0 34.346-12.81 38.721-30.12l0.059-0.276c2.009-6.488 3.166-13.946 3.166-21.675s-1.157-15.187-3.307-22.211l0.141 0.537c-3.783-18.24-19.718-31.752-38.81-31.752-0.276 0-0.551 0.003-0.826 0.008l0.041-0.001c-0.198-0.004-0.431-0.006-0.665-0.006-18.958 0-34.749 13.557-38.208 31.505l-0.039 0.244c-1.622 5.995-3.172 13.622-4.301 21.386l-0.136 1.142z" />
<glyph unicode="&#xe90c;" glyph-name="learn-more" horiz-adv-x="1382" d="M93.696 175.616v722.944c0 21.504 5.632 28.672 26.624 33.792 58.515 16.786 125.723 26.439 195.186 26.439 24.841 0 49.393-1.234 73.599-3.645l-3.057 0.246c98.861-15.392 186.876-52.84 261.839-107.187l-1.743 1.203c6.875-4.549 11.348-12.248 11.348-20.991 0-0.721-0.030-1.435-0.090-2.141l0.006 0.092c0-240.128 0-704.512 0-732.16-172.032 130.048-363.008 141.824-563.712 81.408zM1288.704 175.616v722.944c0 21.504-5.632 28.672-26.624 33.792-58.515 16.786-125.723 26.439-195.186 26.439-24.841 0-49.393-1.234-73.599-3.645l3.057 0.246c-98.861-15.392-186.876-52.84-261.839-107.187l1.743 1.203c-6.875-4.549-11.348-12.248-11.348-20.991 0-0.721 0.030-1.435 0.090-2.141l-0.006 0.092c0-240.128 0-704.512 0-732.16 172.032 130.048 363.008 141.824 563.712 81.408zM1342.464 857.6v-756.224c-60.416 9.728-117.76 23.552-176.64 27.136-165.376 9.728-323.584-12.288-460.8-113.664l-11.776-7.68-11.776 7.68c-139.264 102.4-297.472 123.392-460.8 113.664-58.88-3.584-116.224-17.408-176.64-27.136v756.224l-44.032-6.144v-813.056c55.296 9.728 108.544 20.48 162.304 28.16 40.273 7.488 86.609 11.771 133.946 11.771 36.908 0 73.208-2.603 108.726-7.637l-4.080 0.474c112.346-18.468 211.151-66.505 291.032-135.786l-0.728 0.618c79.153 68.663 177.958 116.7 286.896 134.703l3.408 0.465c31.438 4.559 67.738 7.163 104.646 7.163 47.337 0 93.673-4.283 138.643-12.482l-4.697 0.711c51.2-7.68 107.008-18.432 162.304-28.16v813.056z" />
<glyph unicode="&#xe90d;" glyph-name="feedback" d="M92.16 186.88l360.763 643.545 441.502-441.502-279.631-157.538c10.24-17.723 20.086-34.265 29.538-50.806 8.567-13.947 13.641-30.839 13.641-48.916 0-12.447-2.406-24.332-6.778-35.215l0.226 0.636c-7.364-20.687-21.179-37.56-38.986-48.607l-0.398-0.23c-35.84-21.268-71.286-42.535-107.52-63.015-13.615-8.379-30.11-13.343-47.764-13.343-34.232 0-64.105 18.664-79.998 46.371l-0.238 0.449c-11.422 19.298-22.843 39.385-34.658 58.683l-7.483-3.151-69.711-39.385c-3.757-1.444-6.374-5.023-6.374-9.214 0-1.070 0.171-2.1 0.486-3.065l-0.020 0.070c0.772-5.024 1.213-10.82 1.213-16.719 0-18.577-4.375-36.132-12.15-51.692l0.303 0.67c-11.028-22.843-27.963-26.388-46.474-8.665-28.357 27.175-55.926 55.138-83.889 83.102l-94.523 94.523-8.665 9.058c-23.237 24.812-18.511 42.929 13.785 53.563 9.682 3.45 20.85 5.444 32.484 5.444 11.201 0 21.971-1.848 32.021-5.257l-0.702 0.207zM393.452 108.111c12.209-20.874 23.237-39.385 35.446-59.471 5.403-8.355 14.673-13.806 25.216-13.806 5.189 0 10.070 1.32 14.325 3.644l-0.156-0.078q55.926 31.902 111.458 65.378c9.376 5.179 15.62 15.004 15.62 26.289 0 4.766-1.114 9.271-3.095 13.271l0.078-0.175c-9.846 20.086-21.662 39.385-33.477 59.471zM979.495 395.225c-1.059-0.081-2.292-0.127-3.537-0.127-14.118 0-26.848 5.943-35.825 15.463l-0.023 0.024-270.572 273.723-196.923 194.954c-8.423 8.472-13.63 20.149-13.63 33.043 0 5.517 0.953 10.811 2.704 15.728l-0.102-0.327c6.008 19.19 23.625 32.872 44.439 32.872 13.581 0 25.801-5.825 34.299-15.114l0.032-0.035c42.535-41.748 84.283-83.889 126.425-126.031l342.252-342.252c9.106-8.57 14.777-20.702 14.777-34.158 0-20.75-13.485-38.351-32.169-44.517l-0.331-0.095c-3.362-1.303-7.334-2.398-11.441-3.098l-0.375-0.053z" />
<glyph unicode="&#xe90e;" glyph-name="table-menu" horiz-adv-x="1422" d="M0 960h1422.222v-113.778h-1422.222v113.778zM0 504.889h1422.222v-113.778h-1422.222v113.778zM0 49.778h1422.222v-113.778h-1422.222v113.778z" />
<glyph unicode="&#xe90f;" glyph-name="status" d="M1024 448c0-282.77-229.23-512-512-512s-512 229.23-512 512c0 282.77 229.23 512 512 512s512-229.23 512-512z" />
<glyph unicode="&#xe910;" glyph-name="close" d="M1024 895.634l-63.634 64.366-448.366-448.366-447.634 448.366-64.366-64.366 448.366-447.634-448.366-448.366 64.366-63.634 447.634 447.634 448.366-447.634 63.634 63.634-447.634 448.366 447.634 447.634z" />
<glyph unicode="&#xe911;" glyph-name="IoT-icons-c" horiz-adv-x="911" d="M455.351-65.079v0c-18.245 0.198-35.189 5.601-49.465 14.79l0.37-0.223-219.583 127.865-142.432 82.006c-14.099 7.776-25.466 18.97-33.23 32.495l-0.22 0.415c-6.804 12.501-10.804 27.377-10.804 43.187 0 0.56 0.005 1.119 0.015 1.676l-0.001-0.084v421.901c-0.048 1.061-0.075 2.306-0.075 3.557 0 31.887 17.733 59.633 43.876 73.913l0.44 0.22 142.972 82.546c89.020 50.714 190.449 108.982 219.043 126.247 13.978 8.744 30.866 14.105 48.971 14.564l0.125 0.003c17.631-0.284 33.993-5.471 47.855-14.251l-0.378 0.223 213.109-121.93 151.064-87.401c13.789-7.545 24.951-18.36 32.695-31.439l0.215-0.393c7.136-13.098 11.332-28.687 11.332-45.255 0-0.212-0.001-0.424-0.002-0.636v0.033-421.901c0.040-0.967 0.062-2.102 0.062-3.242 0-31.973-17.715-59.809-43.865-74.227l-0.437-0.221-153.222-87.941-210.411-121.391c-13.493-9.174-30.069-14.77-47.932-15.105l-0.085-0.001zM455.351 749.589c-167.039-0.159-302.388-135.607-302.388-302.668 0-167.159 135.509-302.668 302.668-302.668 55.278 0 107.095 14.819 151.695 40.701l-1.45-0.777c47.113 27.274 85.151 65.485 111.446 111.297l0.773 1.462-131.102 76.072c-26.497-45.926-75.341-76.341-131.289-76.341-83.43 0-151.064 67.634-151.064 151.064s67.634 151.064 151.064 151.064c55.948 0 104.793-30.415 130.901-75.613l0.388-0.729 130.563 77.151c-53.342 90.956-150.633 151.064-261.962 151.064-0.085 0-0.17 0-0.256 0h0.014zM782.837 464.185v-34.529h34.529v-34.529h35.068v35.608h34.529v34.529h-34.529v35.068h-34.529v-35.068zM656.59 464.185v-34.529h34.529v-34.529h34.529v35.608h35.068v34.529h-35.068v35.068h-34.529v-35.068z" />
<glyph unicode="&#xe912;" glyph-name="control" horiz-adv-x="1170" d="M334.994 960v-193.829c0-19.017 5.12-24.137 23.406-24.137h357.669c19.749 0 24.869-5.12 24.869-24.869 0-73.143 0-137.509 0-206.994 0-18.286-4.389-22.674-22.674-22.674h-357.669c-21.211 0-27.063-5.12-26.331-26.331 0-61.44 0-128 0-190.171l-15.36 15.36q-154.331 157.989-308.663 313.051c-10.24 13.166-10.24 19.749 0 32.914 106.789 108.251 213.577 215.040 324.754 327.68zM835.291-64v193.829c0 19.017-5.12 24.137-23.406 24.137h-357.669c-19.749 0-24.869 5.12-24.869 24.869 0 73.143 0 137.509 0 206.994 0 18.286 4.389 22.674 22.674 22.674h357.669c21.211 0 27.063 5.12 26.331 26.331 0 61.44 0 128 0 190.171l15.36-15.36q154.331-155.794 308.663-310.857c13.166-13.166 13.166-19.749 0-32.914-106.789-110.446-213.577-217.234-324.754-329.874z" />
<glyph unicode="&#xe913;" glyph-name="rules" horiz-adv-x="1195" d="M0 69.973v128h349.867c1.616-0.089 3.508-0.14 5.412-0.14 57.968 0 104.96 46.992 104.96 104.96 0 2.752-0.106 5.479-0.314 8.178l0.022-0.358q0 139.947 0 280.747c-0.032 1.433-0.050 3.121-0.050 4.814 0 112.648 80.544 206.484 187.184 227.059l1.453 0.233c6.010 0.581 12.993 0.912 20.053 0.912s14.043-0.331 20.934-0.979l-0.881 0.067h303.787v136.533l202.24-208.213-201.387-207.36v153.6h-302.080c-1.070 0.040-2.327 0.062-3.59 0.062-57.025 0-103.253-46.228-103.253-103.253 0-2.123 0.064-4.232 0.19-6.323l-0.014 0.287c0-94.72 0-190.293 0-285.013 0.025-1.274 0.040-2.775 0.040-4.281 0-125.889-101.34-228.109-226.892-229.532l-0.134-0.001zM992.427 197.973c0 52.907 0 104.107 0 154.453l202.24-208.213-202.24-208.213v133.973h-414.72l85.333 128zM475.307 826.88l-85.333-128h-389.973v128z" />
<glyph unicode="&#xe914;" glyph-name="help" d="M512 960c-282.77 0-512-229.23-512-512s229.23-512 512-512c282.77 0 512 229.23 512 512v0c0 282.77-229.23 512-512 512v0zM550.4 184.96c-11.227-9.949-26.084-16.025-42.361-16.025-0.633 0-1.263 0.009-1.892 0.027l0.092-0.002c-0.536-0.016-1.167-0.025-1.799-0.025-16.277 0-31.134 6.076-42.428 16.084l0.067-0.058c-10.408 10.517-16.837 24.988-16.837 40.96s6.43 30.443 16.842 40.965l-0.005-0.005c11.424 10.761 26.86 17.373 43.84 17.373s32.416-6.613 43.872-17.403l-0.032 0.030c10.408-10.517 16.837-24.988 16.837-40.96s-6.43-30.443-16.842-40.965l0.005 0.005zM666.88 519.68c-13.598-24.708-30.225-45.824-49.75-63.845l-0.17-0.155-30.080-28.8c-17.664-16.268-29.603-38.514-32.592-63.51l-0.048-0.49v-23.040h-97.92c-0.1 2.514-0.157 5.465-0.157 8.43 0 27.033 4.748 52.957 13.455 76.983l-0.498-1.573c10.842 25.419 26.709 46.828 46.491 63.808l0.229 0.192c17.356 14.262 32.35 30.476 44.926 48.501l0.514 0.779c6.744 11.159 10.775 24.618 10.88 39.011v0.029q0 64-58.24 64c-0.652 0.026-1.417 0.040-2.186 0.040-16.38 0-31.214-6.617-41.976-17.323l0.003 0.003c-11.11-11.953-17.928-28.028-17.928-45.696 0-0.36 0.003-0.72 0.008-1.078l-0.001 0.054h-108.8c-0.080 1.797-0.125 3.904-0.125 6.022 0 41.817 17.746 79.49 46.118 105.897l0.088 0.081c30.549 24.512 69.785 39.34 112.483 39.34 3.658 0 7.29-0.109 10.893-0.323l-0.497 0.024c3.45 0.234 7.478 0.368 11.537 0.368 42.447 0 81.483-14.602 112.361-39.056l-0.377 0.288c27.324-25.121 44.386-61.036 44.386-100.936 0-2.766-0.082-5.514-0.244-8.24l0.018 0.376c0.026-0.972 0.040-2.116 0.040-3.263 0-20.677-4.737-40.248-13.185-57.686l0.345 0.789z" />
<glyph unicode="&#xe915;" glyph-name="calendar" d="M369.92 395.072c0 12.8-10.624 23.232-23.744 23.232h-82.944c-13.12 0-23.744-10.368-23.744-23.232v-81.088c0-12.864 10.624-23.232 23.744-23.232h82.944c13.12 0 23.744 10.368 23.744 23.232v81.088zM577.216 395.072c0 12.8-10.624 23.232-23.744 23.232h-82.944c-13.12 0-23.744-10.368-23.744-23.232v-81.088c0-12.864 10.624-23.232 23.744-23.232h82.944c13.12 0 23.744 10.368 23.744 23.232v81.088zM784.576 395.072c0 12.8-10.624 23.232-23.744 23.232h-82.944c-13.12 0-23.744-10.368-23.744-23.232v-81.088c0-12.864 10.624-23.232 23.744-23.232h82.944c13.12 0 23.744 10.368 23.744 23.232v81.088zM369.92 192.32c0 12.864-10.624 23.232-23.744 23.232h-82.944c-13.12 0-23.744-10.368-23.744-23.232v-81.088c0-12.864 10.624-23.232 23.744-23.232h82.944c13.12 0 23.744 10.368 23.744 23.232v81.088zM577.216 192.32c0 12.864-10.624 23.232-23.744 23.232h-82.944c-13.12 0-23.744-10.368-23.744-23.232v-81.088c0-12.864 10.624-23.232 23.744-23.232h82.944c13.12 0 23.744 10.368 23.744 23.232v81.088zM784.576 192.32c0 12.864-10.624 23.232-23.744 23.232h-82.944c-13.12 0-23.744-10.368-23.744-23.232v-81.088c0-12.864 10.624-23.232 23.744-23.232h82.944c13.12 0 23.744 10.368 23.744 23.232v81.088zM932.864 845.952v-123.84c0-56-46.464-101.12-103.68-101.12h-65.408c-57.28 0-104.32 45.12-104.32 101.12v124.288h-294.848v-124.288c0-56-47.040-101.12-104.32-101.12h-65.408c-57.216 0-103.68 45.12-103.68 101.12v123.84c-50.048-1.472-91.136-41.984-91.136-91.712v-725.952c0-50.688 42.048-92.352 93.888-92.352h836.288c51.776 0 93.888 41.728 93.888 92.352v725.952c-0.128 49.792-41.216 90.24-91.264 91.712v0zM902.464 73.536c0-21.888-18.176-39.68-40.576-39.68h-701.568c-22.4 0-40.576 17.792-40.576 39.68v374.976c0 21.888 18.176 39.68 40.576 39.68h701.568c22.4 0 40.576-17.792 40.576-39.68v-374.976zM194.624 687.424h64.704c19.648 0 35.584 15.552 35.584 34.752v203.072c0 19.2-15.936 34.752-35.584 34.752h-64.704c-19.648 0-35.584-15.552-35.584-34.752v-203.072c0-19.2 15.936-34.752 35.584-34.752v0zM762.944 687.424h64.704c19.648 0 35.52 15.552 35.52 34.752v203.072c0 19.2-15.936 34.752-35.52 34.752h-64.704c-19.648 0-35.584-15.552-35.584-34.752v-203.072c0-19.2 15.936-34.752 35.584-34.752v0z" />
<glyph unicode="&#xe916;" glyph-name="home" horiz-adv-x="1229" d="M1211.733 561.323l-572.757 391.168c-6.883 4.738-15.399 7.567-24.576 7.567s-17.693-2.829-24.724-7.663l0.148 0.096-572.757-391.168c-10.224-6.665-16.888-18.046-16.888-30.983 0-8.709 3.020-16.713 8.070-23.021l-0.057 0.073c8.066-10.412 20.572-17.050 34.628-17.050 9.55 0 18.385 3.064 25.574 8.263l-0.128-0.088 546.133 374.784 546.133-374.784c6.794-4.702 15.21-7.51 24.282-7.51 0.103 0 0.207 0 0.31 0.001h-0.016c0.162-0.002 0.353-0.004 0.545-0.004 13.253 0 25.084 6.091 32.845 15.627l0.061 0.077c5.659 6.447 9.112 14.952 9.112 24.264 0 12.535-6.257 23.61-15.818 30.27l-0.12 0.079zM1054.037 508.757c-0.414 0.015-0.9 0.024-1.388 0.024-21.773 0-39.511-17.276-40.253-38.868l-0.002-0.068v-456.704h-230.741v245.76c-3.709 86.412-74.664 155.062-161.652 155.062-1.97 0-3.931-0.035-5.884-0.105l0.283 0.008c-1.662 0.061-3.614 0.096-5.574 0.096-87.228 0-158.334-69.029-161.67-155.441l-0.009-0.303v-245.077h-230.741v457.387c-0.744 21.66-18.482 38.936-40.255 38.936-0.488 0-0.974-0.009-1.458-0.026l0.070 0.002c-20.899-1.085-37.523-17.947-38.228-38.845l-0.002-0.067v-495.616c0.744-21.66 18.482-38.936 40.255-38.936 0.488 0 0.974 0.009 1.458 0.026l-0.070-0.002h314.027c0.491-0.021 1.067-0.034 1.646-0.034 20.572 0 37.542 15.423 39.977 35.338l0.019 0.194v287.403c4.022 43.368 40.232 77.056 84.309 77.056s80.287-33.688 84.284-76.722l0.025-0.335v-286.72c2.455-20.109 19.425-35.532 39.997-35.532 0.579 0 1.155 0.012 1.728 0.036l-0.082-0.003h314.027c0.414-0.015 0.9-0.024 1.388-0.024 21.773 0 39.511 17.276 40.253 38.868l0.002 0.068v494.933c-0.921 21.514-18.586 38.606-40.243 38.606-1.938 0-3.845-0.137-5.71-0.402l0.214 0.025z" />
<glyph unicode="&#xe917;" glyph-name="play" horiz-adv-x="1317" d="M1265.371 872.229c-46.324 62.415-135.558 87.771-302.811 87.771h-608.549c-171.154 0-260.389-27.307-307.688-93.623s-46.324-160.427-46.324-292.571v-252.099c0-255.512 54.613-385.707 354.011-385.707h608.549c146.286 0 225.768 22.43 277.943 77.531s76.069 148.724 76.069 308.663v251.611c0 139.459-3.413 235.52-51.2 297.935zM845.531 413.379l-275.992-159.451c-5.879-3.74-13.042-5.96-20.724-5.96s-14.845 2.22-20.883 6.054l0.159-0.094c-12.46 8.95-20.481 23.4-20.481 39.723 0 0.092 0 0.184 0.001 0.276v-0.014 319.39c0 0.078-0.001 0.17-0.001 0.262 0 16.323 8.020 30.773 20.335 39.623l0.146 0.099c5.879 3.74 13.042 5.96 20.724 5.96s14.845-2.22 20.883-6.054l-0.159 0.094 275.992-158.476c14.167-8.7 23.473-24.109 23.473-41.691s-9.306-32.992-23.261-41.57l-0.212-0.121z" />
<glyph unicode="&#xe918;" glyph-name="success2" horiz-adv-x="1339" d="M15.754 400.738c-7.877 7.877-15.754 23.631-15.754 39.385 0 7.877 7.877 23.631 15.754 39.385l70.892 70.892c23.631 23.631 55.138 23.631 70.892 0l7.877-7.877 283.569-299.323c7.877-7.877 23.631-7.877 39.385 0l693.169 708.923h7.877c23.631 23.631 55.138 23.631 70.892 0l70.892-70.892c23.631-23.631 23.631-55.138 0-70.892v0l-827.077-850.708c-7.877-7.877-23.631-15.754-39.385-15.754s-23.631 7.877-39.385 15.754l-401.723 433.231-7.877 7.877z" />
<glyph unicode="&#xe919;" glyph-name="external-Link" horiz-adv-x="1103" d="M708.923 960l141.785-141.785-409.6-409.6 110.277-110.277 409.6 409.6 141.785-141.785v393.846zM858.585 14.769h-779.815v787.692h622.277v78.769h-701.046v-945.231h937.354v535.631h-78.769z" />
<glyph unicode="&#xe91a;" glyph-name="error2" d="M665.6 433.371c-7.314 7.314-7.314 21.943 0 29.257l351.086 351.086c7.314 7.314 14.629 21.943 14.629 29.257s-7.314 21.943-14.629 29.257l-65.829 65.829c-7.314 7.314-21.943 14.629-29.257 14.629-14.629 0-21.943-7.314-29.257-14.629l-351.086-351.086c-7.314-7.314-21.943-7.314-29.257 0l-351.086 351.086c-7.314 7.314-21.943 14.629-29.257 14.629s-21.943-7.314-29.257-14.629l-65.829-65.829c-7.314-7.314-14.629-21.943-14.629-29.257s7.314-21.943 14.629-29.257l351.086-351.086c7.314-7.314 7.314-21.943 0-29.257l-351.086-351.086c-7.314-7.314-14.629-21.943-14.629-29.257s7.314-21.943 14.629-29.257l65.829-65.829c7.314-7.314 21.943-14.629 29.257-14.629s21.943 7.314 29.257 14.629l351.086 351.086c7.314 7.314 21.943 7.314 29.257 0l351.086-351.086c7.314-7.314 21.943-14.629 29.257-14.629s21.943 7.314 29.257 14.629l65.829 65.829c7.314 7.314 14.629 21.943 14.629 29.257s-7.314 21.943-14.629 29.257l-351.086 351.086z" />
<glyph unicode="&#xe91b;" glyph-name="IoT-icons_icon-notification" horiz-adv-x="858" d="M429.176 960c-60.235 0-105.412-45.176-105.412-105.412v-30.118h-7.529c-203.294-60.235-225.882-271.059-225.882-293.647v-240.941c0-7.529 0-15.059-7.529-22.588l-52.706-52.706c-22.588-22.588-30.118-45.176-30.118-75.294s30.118-60.235 60.235-60.235h233.412v-7.529c0-75.294 60.235-135.529 135.529-135.529s135.529 60.235 135.529 135.529v7.529h233.412c37.647 0 60.235 30.118 60.235 67.765 0 30.118-7.529 52.706-30.118 75.294v0l-52.706 52.706c-7.529 7.529-7.529 15.059-7.529 22.588v240.941c0 22.588-30.118 233.412-225.882 286.118h-7.529v30.118c0 60.235-52.706 105.412-105.412 105.412zM399.059 854.588c0 7.529 0 15.059 7.529 15.059 15.059 7.529 45.176 7.529 45.176-15.059v-22.588h-7.529c0 0-7.529 0-7.529 0-7.529 0-15.059 0-22.588 0 0 0-7.529 0-7.529 0h-7.529v22.588zM489.412 71.529c0-30.118-30.118-52.706-60.235-52.706s-60.235 22.588-60.235 52.706v7.529l120.471-7.529zM692.706 523.294v-233.412c0-30.118 7.529-52.706 30.118-75.294l60.235-60.235h-700.235l60.235 60.235c22.588 22.588 30.118 45.176 30.118 75.294v233.412c7.529 37.647 37.647 233.412 263.529 233.412 218.353 7.529 248.471-195.765 256-233.412z" />
<glyph unicode="&#xe91c;" glyph-name="icon-copy" d="M832 768h-192l-192 192h-448v-832h384v-192h640v640zM448 896l128-128h-128zM64 192v704h320v-192h192v-512zM960 0h-512v128h192v576h128v-192h192zM832 576v128l128-128z" />
<glyph unicode="&#xe91d;" glyph-name="dashboard-2" horiz-adv-x="1257" d="M1244.459 947.638c-8.241 8.241-20.604 12.362-30.905 12.362h-760.274c-12.362 0-22.664-4.121-30.905-12.362s-12.362-20.604-12.362-30.905v-284.33c14.423-2.060 26.785-6.181 41.207-10.302v292.571c0 2.060 2.060 4.121 2.060 4.121h758.213c2.060 0 4.121-2.060 4.121-4.121v-758.213c0-2.060-2.060-4.121-4.121-4.121h-535.694c-6.181-14.423-12.362-28.845-20.604-41.207h556.298c24.724 0 45.328 20.604 45.328 45.328v758.213c0 12.362-4.121 24.724-12.362 32.966zM768.515 333.65c8.241 0 14.423 6.181 18.543 12.362l24.724 61.811 14.423-20.604c4.121-6.181 12.362-8.241 18.543-8.241 8.241 0 14.423 6.181 16.483 12.362l32.966 84.475 51.509-96.837c4.121-8.241 12.362-12.362 20.604-10.302 8.241 0 14.423 6.181 18.543 14.423l82.414 251.364 63.871-150.406c4.121-10.302 16.483-14.423 26.785-10.302 10.302 2.060 16.483 14.423 10.302 24.724l-86.535 201.915c-4.121 8.241-10.302 12.362-20.604 12.362-8.241 0-16.483-6.181-18.543-14.423l-84.475-257.545-49.449 94.777c-4.121 6.181-10.302 12.362-18.543 10.302-8.241 0-14.423-6.181-18.543-12.362l-35.026-90.656-14.423 20.604c-4.121 6.181-12.362 8.241-18.543 8.241-8.241 0-14.423-6.181-16.483-12.362l-20.604-53.569-92.716 191.614c-4.121 6.181-10.302 10.302-16.483 12.362-8.241 0-14.423-4.121-18.543-10.302l-41.207-63.871c10.302-10.302 18.543-20.604 28.845-32.966l26.785 43.268 96.837-199.855c4.121-6.181 10.302-12.362 18.543-12.362zM354.382 220.33c14.423 0 26.785 12.362 26.785 26.785s-12.362 26.785-26.785 26.785l-123.622 92.716 96.837-123.622c2.060-12.362 12.362-22.664 26.785-22.664zM350.262 582.954c0-4.121-4.121-4.121-6.181-4.121-166.889-2.060-302.873-138.044-300.813-304.934v-2.060c0-59.751 18.543-119.501 49.449-171.010h37.087l53.569 47.388-22.664 30.905-49.449-43.268c-20.604 43.268-32.966 88.596-32.966 138.044v6.181h59.751v39.147h-57.69c6.181 47.388 26.785 90.656 57.69 127.742l39.147-43.268 26.785 26.785-39.147 43.268c41.207 41.207 94.777 67.992 154.527 74.173v-70.052h37.087v70.052c65.932-2.060 127.742-30.905 173.070-76.233l-43.268-43.268 26.785-26.785 43.268 43.268c28.845-37.087 45.328-78.294 53.569-123.622h-57.69v-39.147h59.751v-6.181c0-47.388-12.362-94.777-37.087-138.044l-47.388 47.388-26.785-26.785 49.449-53.569h39.147c32.966 51.509 51.509 109.199 49.449 171.010 4.121 164.829-123.622 302.873-288.451 306.994zM208.097 117.312h269.907v-74.173h-269.907v74.173z" />
<glyph unicode="&#xe91e;" glyph-name="IoT-icons_icon-dropdown-up" horiz-adv-x="1648" d="M1648 755.84l-192 192-640-640-640 640-192-192 832-832 832 832z" />
<glyph unicode="&#xe91f;" glyph-name="IoT-icons_icon-dropdown" horiz-adv-x="1648" d="M0 131.84l192-192 640 640 640-640 192 192-832 832-832-832z" />
<glyph unicode="&#xe920;" glyph-name="metrics-1" horiz-adv-x="777" d="M171.226 787.095h25.18c1.679-5.036 3.357-11.751 6.715-16.787l-18.466-18.466c-3.357-3.357-5.036-8.393-1.679-13.43l31.895-31.895c5.036-3.357 10.072-3.357 15.108 0l18.466 18.466c5.036-3.357 10.072-5.036 16.787-6.715v-25.18c0-5.036 3.357-10.072 10.072-10.072h43.646c5.036 0 10.072 3.357 10.072 10.072v25.18c5.036 1.679 11.751 3.357 16.787 6.715l18.466-18.466c5.036-3.357 10.072-3.357 15.108 0l30.216 30.216c3.357 3.357 5.036 8.393 1.679 13.43l-20.144 20.144c3.357 5.036 5.036 10.072 6.715 16.787h25.18c5.036 0 10.072 3.357 10.072 10.072v45.325c1.679 5.036-1.679 10.072-5.036 11.751-3.357 0-5.036 0-6.715 0h-20.144c-1.679 5.036-3.357 11.751-6.715 16.787l18.466 18.466c3.357 5.036 3.357 10.072 0 15.108l-30.216 30.216c-5.036 3.357-10.072 3.357-15.108 0l-18.466-18.466c-5.036 3.357-10.072 5.036-16.787 6.715v25.18c0 6.715-5.036 11.751-11.751 11.751h-43.646c-6.715 0-10.072-5.036-10.072-11.751v-25.18c-5.036-1.679-11.751-5.036-16.787-6.715l-18.466 18.466c-5.036 3.357-10.072 3.357-15.108 0l-30.216-30.216c-5.036-5.036-5.036-11.751-1.679-16.787l18.466-18.466c-3.357-5.036-5.036-10.072-6.715-16.787h-25.18c-5.036 1.679-10.072-1.679-10.072-6.715 0-1.679 0-1.679 0-3.357v-43.646c0-6.715 3.357-11.751 10.072-11.751zM298.807 889.495c38.61 0 68.826-30.216 68.826-68.826 1.679-36.931-28.538-68.826-68.826-68.826-38.61 0-68.826 30.216-68.826 68.826s30.216 68.826 68.826 68.826zM777.233 629.298c-1.679 3.357-1.679 3.357-3.357 5.036s-1.679 1.679-3.357 3.357c0 0 0 0-1.679 0l-63.79 31.895c-8.393 3.357-18.466 0-21.823-8.393s0-18.466 8.393-21.823l33.574-15.108-334.059-172.905-332.38 172.905 33.574 16.787c8.393 3.357 11.751 13.43 6.715 21.823-3.357 8.393-13.43 11.751-21.823 6.715l-63.79-31.895c-1.679-1.679-3.357-1.679-3.357-3.357 0 0 0 0 0-1.679-1.679-1.679-1.679-3.357-1.679-5.036 0 0 0 0 0-1.679s0-3.357 0-5.036v-480.105c0-6.715 3.357-11.751 8.393-15.108l369.311-191.37h3.357c1.679 0 3.357 0 5.036 0s3.357 0 5.036 0h3.357l369.311 191.37c5.036 3.357 8.393 8.393 8.393 15.108v483.462c-3.357 1.679-3.357 3.357-3.357 5.036zM374.348-18.675l-335.738 172.905v443.174l335.738-174.584v-441.495zM743.659 154.23l-335.738-174.584v443.174l335.738 174.584v-443.174zM451.567 656.157h15.108l5.036-10.072-11.751-11.751c-3.357-1.679-3.357-6.715-1.679-8.393 0 0 0-1.679 1.679-1.679l20.144-20.144c1.679-3.357 6.715-3.357 8.393-1.679 0 0 1.679 0 1.679 1.679l11.751 11.751 10.072-5.036v-15.108c0-3.357 3.357-6.715 6.715-6.715h26.859c3.357 0 6.715 3.357 6.715 6.715v15.108l10.072 5.036 11.751-11.751c1.679-3.357 6.715-3.357 8.393-1.679 0 0 1.679 0 1.679 1.679l20.144 20.144c3.357 1.679 3.357 6.715 1.679 8.393 0 0 0 1.679-1.679 1.679l-11.751 11.751 5.036 10.072h16.787c3.357 0 6.715 3.357 6.715 6.715v26.859c1.679 3.357-1.679 6.715-5.036 6.715h-16.787l-5.036 10.072 11.751 11.751c3.357 1.679 3.357 6.715 1.679 8.393 0 0 0 1.679-1.679 1.679l-20.144 20.144c-1.679 3.357-6.715 3.357-8.393 1.679 0 0-1.679 0-1.679-1.679l-11.751-11.751-10.072 5.036v15.108c0 3.357-3.357 6.715-6.715 6.715h-26.859c-3.357 0-6.715-3.357-6.715-6.715v-15.108c-3.357-1.679-6.715-3.357-10.072-5.036l-11.751 11.751c-1.679 3.357-6.715 3.357-8.393 1.679 0 0-1.679 0-1.679-1.679l-20.144-20.144c-3.357-1.679-3.357-6.715-1.679-8.393 0 0 0-1.679 1.679-1.679l11.751-11.751-5.036-10.072h-16.787c-3.357 0-6.715-3.357-6.715-6.715v-26.859c0-3.357 3.357-6.715 6.715-6.715zM535.502 714.911c21.823 0 38.61-16.787 38.61-38.61 1.679-20.144-15.108-38.61-38.61-38.61-21.823 0-38.61 16.787-38.61 38.61s16.787 38.61 38.61 38.61z" />
<glyph unicode="&#xe921;" glyph-name="rules-1" horiz-adv-x="865" d="M718.152 809.611h-371.749c-10.139 0-16.898-6.759-16.898-16.898s6.759-16.898 16.898-16.898h371.749c10.139 0 16.898 6.759 16.898 16.898s-6.759 16.898-16.898 16.898zM718.152 725.122h-371.749c-10.139 0-16.898-6.759-16.898-16.898s6.759-16.898 16.898-16.898h371.749c10.139 0 16.898 6.759 16.898 16.898s-6.759 16.898-16.898 16.898zM718.152 632.185h-371.749c-10.139 0-16.898-6.759-16.898-16.898s6.759-16.898 16.898-16.898h371.749c10.139 0 16.898 6.759 16.898 16.898s-6.759 16.898-16.898 16.898zM811.089 961.69h-561.003c-15.208 0-28.726-5.069-38.865-15.208s-16.898-23.657-16.898-40.554v-359.921c0-10.139 6.759-16.898 16.898-16.898s16.898 6.759 16.898 16.898v359.921c0 6.759 3.38 11.828 6.759 15.208s10.139 5.069 15.208 5.069h561.003c11.828-1.69 20.277-10.139 20.277-21.967v-816.158c0-6.759-3.38-11.828-6.759-15.208s-8.449-5.069-13.518-5.069c-8.449 0-16.898-8.449-16.898-16.898-1.69-8.449 6.759-16.898 16.898-16.898 13.518 0 27.036 5.069 38.865 18.587 10.139 10.139 16.898 23.657 16.898 37.175v816.158c0 30.416-23.657 55.762-55.762 55.762zM615.076 525.729c-1.69 1.69-3.38 3.38-6.759 3.38-5.069 0-8.449-5.069-8.449-10.139v-47.314c0-5.069-5.069-10.139-10.139-10.139h-174.046c-6.759 0-11.828 0-16.898-1.69-70.97-10.139-123.353-70.97-121.663-141.941v-168.977c0-3.38 0-5.069 0-8.449-1.69-33.795-30.416-60.832-65.901-59.142h-172.356c-21.967 0-38.865-16.898-38.865-38.865 0-1.69 0-1.69-1.69-1.69 1.69-20.277 18.587-35.485 38.865-33.795h175.736c11.828 0 25.347 1.69 37.175 5.069 59.142 18.587 99.696 72.66 99.696 135.182v172.356c0 3.38 0 5.069 0 8.449 3.38 33.795 33.795 59.142 67.591 57.452h170.667c5.069 0 10.139-5.069 10.139-10.139v-59.142c0-1.69 1.69-5.069 3.38-6.759 5.069-3.38 10.139-3.38 13.518 0 33.795 33.795 65.901 69.281 98.007 101.386 3.38 5.069 3.38 10.139 0 13.518-32.106 33.795-64.211 67.591-98.007 101.386zM613.386 157.36c-3.38 3.38-8.449 5.069-13.518 1.69-1.69-1.69-3.38-5.069-3.38-8.449v-59.142c1.69-6.759-3.38-10.139-8.449-10.139h-184.185c-5.069 0-8.449-3.38-10.139-6.759-6.759-20.277-16.898-38.865-30.416-54.073-3.38-3.38-3.38-10.139 1.69-13.518 1.69-1.69 3.38-1.69 6.759-1.69h216.29c5.069 0 10.139-5.069 10.139-10.139v-47.314c0-5.069 3.38-10.139 8.449-10.139 3.38 0 5.069 1.69 6.759 3.38 33.795 33.795 65.901 67.591 98.007 101.386 3.38 3.38 3.38 8.449 0 13.518l-98.007 101.386zM35.485 383.789c1.69 0 1.69 0 3.38 0h185.875c5.069 0 8.449 3.38 10.139 6.759 5.069 20.277 15.208 37.175 27.036 54.073 5.069 5.069 0 15.208-8.449 15.208h-212.911c-20.277 1.69-38.865-15.208-40.554-35.485s15.208-38.865 35.485-40.554z" />
<glyph unicode="&#xe922;" glyph-name="metrics-2" horiz-adv-x="757" d="M750.177 605.165c0 1.62 0 1.62 0 0-1.62 3.241-1.62 3.241-3.241 4.861 0 0 0 0 0 1.62-1.62 1.62-1.62 1.62-3.241 3.241 0 0 0 0-1.62 0v0l-87.494 42.127c-8.101 3.241-17.823 0-21.063-8.101s0-17.823 8.101-21.063l58.329-27.544-320.81-165.266-320.81 165.266 53.468 25.924c8.101 3.241 11.342 12.962 8.101 21.063s-12.962 11.342-21.063 8.101l-82.633-40.506c0 0 0 0-1.62 0-1.62-1.62-3.241-1.62-3.241-3.241 0 0 0 0 0-1.62-1.62-1.62-1.62-3.241-1.62-3.241s0 0 0-1.62-1.62-3.241-1.62-4.861v-463.392c0-6.481 3.241-11.342 8.101-14.582l356.456-184.709h3.241c1.62 0 3.241 0 4.861 0s3.241 0 4.861 0h3.241l356.456 184.709c4.861 3.241 8.101 8.101 8.101 14.582v463.392c-1.62 1.62-3.241 3.241-3.241 4.861zM37.266 574.38l324.051-168.506v-427.747l-324.051 168.506c0 0 0 427.747 0 427.747zM719.392 146.633l-324.051-168.506v427.747l324.051 168.506v-427.747zM421.266 836.861c-11.342 66.43-81.013 40.506-123.139 14.582 1.62 12.962 11.342 24.304 22.684 29.165 16.203 8.101 40.506 21.063 32.405 42.127-3.241 11.342-11.342 19.443-21.063 25.924-6.481 3.241-12.962 6.481-19.443 8.101-16.203 3.241-32.405 4.861-48.608 3.241-66.43-11.342-40.506-81.013-14.582-123.139-12.962 1.62-24.304 11.342-29.165 22.684-8.101 16.203-21.063 40.506-42.127 32.405-11.342-3.241-21.063-11.342-27.544-21.063-3.241-6.481-6.481-12.962-8.101-19.443-3.241-16.203-4.861-32.405-3.241-48.608 11.342-66.43 81.013-40.506 123.139-14.582-1.62-12.962-11.342-24.304-22.684-29.165-16.203-8.101-40.506-21.063-32.405-42.127 3.241-11.342 11.342-19.443 21.063-25.924 6.481-3.241 12.962-6.481 19.443-8.101 16.203-3.241 32.405-4.861 48.608-3.241 66.43 11.342 40.506 81.013 14.582 123.139 12.962-1.62 24.304-11.342 29.165-22.684 8.101-16.203 21.063-40.506 42.127-32.405 11.342 3.241 19.443 11.342 25.924 21.063 3.241 6.481 6.481 12.962 8.101 19.443 4.861 14.582 6.481 30.785 4.861 48.608zM311.089 720.203c0 1.62 3.241 3.241 4.861 1.62 1.62 0 3.241-3.241 1.62-4.861-3.241-11.342-14.582-19.443-27.544-19.443-3.241 0-4.861 1.62-4.861 4.861s1.62 3.241 4.861 3.241c9.722 0 17.823 6.481 21.063 14.582zM604.354 741.266h-34.025c-1.62 0-3.241-1.62-3.241-3.241s1.62-3.241 3.241-3.241h34.025c1.62 0 3.241 1.62 3.241 3.241s-1.62 3.241-3.241 3.241zM591.392 750.987c3.241 0 3.241 1.62 3.241 3.241s-1.62 3.241-3.241 3.241h-22.684c-1.62 0-3.241-1.62-3.241-3.241s1.62-3.241 3.241-3.241h22.684zM604.354 773.671h-34.025c-1.62 0-3.241-1.62-3.241-3.241s1.62-3.241 3.241-3.241h34.025c1.62 0 3.241 1.62 3.241 3.241s-1.62 3.241-3.241 3.241zM568.709 783.392h22.684c3.241 0 3.241 1.62 3.241 3.241s-1.62 3.241-3.241 3.241h-22.684c-1.62 0-3.241-1.62-3.241-3.241s1.62-3.241 3.241-3.241zM570.329 801.215h34.025c1.62 0 3.241 1.62 3.241 3.241s-1.62 3.241-3.241 3.241h-34.025c-1.62 0-3.241-1.62-3.241-3.241s1.62-3.241 3.241-3.241zM546.025 679.696v163.646c0 11.342-9.722 21.063-21.063 21.063-12.962 0-22.684-9.722-22.684-21.063v-163.646c-12.962-8.101-19.443-22.684-21.063-35.646 0-22.684 19.443-42.127 42.127-42.127s42.127 19.443 42.127 42.127c0 14.582-6.481 27.544-19.443 35.646zM518.481 660.253c-4.861-3.241-8.101-8.101-11.342-12.962-1.62 0-3.241 0-4.861 0h-1.62c-1.62 1.62-3.241 3.241-1.62 4.861 3.241 6.481 8.101 11.342 12.962 14.582 1.62 1.62 4.861 1.62 6.481 0s1.62-4.861 0-6.481z" />
<glyph unicode="&#xe923;" glyph-name="devices-2" horiz-adv-x="1385" d="M808.070 289.948c-53.426 0-95.722-42.296-95.722-95.722s42.296-95.722 95.722-95.722 95.722 42.296 95.722 95.722-42.296 95.722-95.722 95.722zM808.070 143.026c-28.939 0-51.2 22.261-51.2 51.2s22.261 51.2 51.2 51.2 51.2-22.261 51.2-51.2-22.261-51.2-51.2-51.2zM1115.27 289.948c-53.426 0-95.722-42.296-95.722-95.722s42.296-95.722 95.722-95.722 95.722 42.296 95.722 95.722-42.296 95.722-95.722 95.722zM1115.27 143.026c-28.939 0-51.2 22.261-51.2 51.2s22.261 51.2 51.2 51.2c28.939 0 51.2-22.261 51.2-51.2s-22.261-51.2-51.2-51.2zM1333.426 450.226h-567.652c-6.678 37.843-37.843 64.557-75.687 64.557-35.617 0-66.783-28.939-73.461-64.557h-567.652c-26.713 0-48.974-22.261-48.974-48.974v-416.278c0-26.713 22.261-48.974 48.974-48.974h1286.678c26.713 0 48.974 22.261 46.748 48.974v416.278c0 26.713-22.261 48.974-48.974 48.974zM1340.104-15.026c0-2.226-2.226-4.452-4.452-4.452h-1286.678c-2.226 0-4.452 2.226-4.452 4.452v416.278c0 2.226 2.226 4.452 4.452 4.452v-2.226h587.687c6.678 0 13.357 4.452 17.809 8.904s6.678 11.13 4.452 17.809c0 2.226 0 4.452 0 6.678 0 17.809 13.357 31.165 31.165 31.165s31.165-13.357 31.165-28.939c0-2.226 0-4.452 0-6.678-2.226-6.678 0-13.357 4.452-17.809 4.452-6.678 11.13-8.904 17.809-8.904h592.139c2.226 0 4.452-2.226 4.452-4.452v-416.278zM509.774 565.983c-8.904-8.904-8.904-22.261 0-31.165s22.261-8.904 31.165 0c84.591 77.913 215.93 77.913 300.522-2.226 4.452-4.452 11.13-6.678 15.583-6.678 6.678 0 11.13 2.226 13.357 6.678 8.904 8.904 8.904 22.261 0 31.165-100.174 95.722-258.226 97.948-360.626 2.226zM961.67 646.122c6.678 0 13.357 2.226 15.583 6.678 8.904 8.904 6.678 22.261-2.226 31.165-293.843 249.322-567.652 2.226-569.878 0-8.904-8.904-8.904-22.261 0-31.165s22.261-8.904 31.165 0c2.226 0 62.33 55.652 155.826 84.591 124.661 37.843 244.87 8.904 356.174-86.817 2.226-2.226 8.904-4.452 13.357-4.452zM331.687 773.009c15.583 13.357 351.722 313.878 723.478-2.226 2.226-2.226 8.904-4.452 13.357-4.452 6.678 0 11.13 4.452 17.809 8.904 8.904 8.904 6.678 22.261-2.226 31.165-400.696 340.591-776.904 4.452-781.357 0-8.904-8.904-11.13-22.261-2.226-31.165s22.261-11.13 31.165-2.226zM532.035 289.948h-75.687c-31.165 0-57.878-26.713-57.878-57.878v-77.913c0-2.226 0-4.452 0-6.678 4.452-28.939 28.939-51.2 57.878-51.2 2.226 0 4.452 0 2.226 0h73.461c15.583 0 28.939 6.678 40.070 17.809s17.809 24.487 17.809 40.070v77.913c0 15.583-6.678 28.939-17.809 40.070s-24.487 17.809-40.070 17.809zM547.617 151.93c0-6.678-6.678-13.357-13.357-13.357h-75.687c-6.678 0-13.357 4.452-13.357 11.13v82.365c0 6.678 6.678 13.357 13.357 13.357h75.687c2.226 0 6.678 0 8.904-6.678 2.226-2.226 4.452-4.452 4.452-8.904v-77.913zM280.487 289.948h-75.687c-15.583 0-28.939-6.678-40.070-17.809s-17.809-24.487-17.809-40.070v-77.913c0-2.226 0-4.452 0-6.678 0-15.583 8.904-28.939 20.035-37.843 8.904-8.904 22.261-13.357 35.617-13.357 2.226 0 4.452 0 4.452 0h73.461c31.165 0 57.878 26.713 57.878 57.878v77.913c0 15.583-6.678 28.939-17.809 40.070s-24.487 17.809-40.070 17.809zM293.843 151.93c0-6.678-6.678-13.357-13.357-13.357h-75.687c-2.226 0-6.678 0-8.904 2.226s-4.452 4.452-4.452 8.904c0 2.226 0 2.226 0 2.226v80.139c0 2.226 2.226 6.678 4.452 8.904s4.452 4.452 8.904 4.452h75.687c4.452 0 6.678 0 8.904-6.678 2.226-2.226 4.452-4.452 4.452-8.904v-77.913z" />
<glyph unicode="&#xe924;" glyph-name="IoT-icons_icon_5minutes" d="M512 960c-282.77 0-512-229.23-512-512s229.23-512 512-512c282.77 0 512 229.23 512 512v0c0 282.77-229.23 512-512 512v0zM512 896.102c247.48 0 448.102-200.622 448.102-448.102s-200.622-448.102-448.102-448.102c-247.48 0-448.102 200.622-448.102 448.102v0c0 247.48 200.622 448.102 448.102 448.102v0zM512 783.872c-17.645 0-31.949-14.304-31.949-31.949v0-303.923c0-0.064-0.001-0.14-0.001-0.216 0-8.746 3.607-16.65 9.415-22.305l192.109-192.109c5.818-5.818 13.855-9.416 22.733-9.416 17.755 0 32.149 14.394 32.149 32.149 0 8.878-3.598 16.915-9.416 22.733v0l-183.091 182.682v290.816c-0.231 17.468-14.445 31.539-31.946 31.539-0.001 0-0.002 0-0.003 0v0z" />
<glyph unicode="&#xe925;" glyph-name="IoT-icons_icon-1hours" d="M516.096 960c-1.212 0.010-2.645 0.016-4.079 0.016-282.77 0-512-229.23-512-512s229.23-512 512-512c281.324 0 509.654 226.892 511.982 507.667l0.001 0.221c0.005 0.86 0.008 1.877 0.008 2.895 0 281.579-226.759 510.195-507.627 513.199l-0.285 0.002zM516.096 895.693c248.831-0.009 450.545-201.728 450.545-450.56 0-248.837-201.723-450.56-450.56-450.56s-450.56 201.723-450.56 450.56c0 1.296 0.005 2.591 0.016 3.885l-0.001-0.198c2.083 246.822 202.311 446.187 449.265 446.873h0.066zM512.819 415.642c-5.286 0.506-10.147 1.665-14.721 3.406l0.385-0.129-195.789 104.448c-9.983 5.544-16.627 16.025-16.627 28.058 0 17.666 14.321 31.987 31.987 31.987 5.633 0 10.926-1.456 15.523-4.013l-0.163 0.083 149.094-78.643v253.133c0.222 17.638 14.346 31.906 31.907 32.358l0.042 0.001c17.603-0.453 31.727-14.72 31.949-32.337v-0.021l-1.638-305.971c-0.492-11.565-6.69-21.583-15.834-27.361l-0.14-0.083c-4.459-3.077-9.978-4.915-15.927-4.915-0.017 0-0.033 0-0.050 0h0.003z" />
<glyph unicode="&#xe926;" glyph-name="IoT-icons_icon-15minutes" d="M512 960c-282.77 0-512-229.23-512-512s229.23-512 512-512c282.77 0 512 229.23 512 512v0 0c-0.697 282.489-229.511 511.303-511.933 512h-0.067zM512 896.102c247.48 0 448.102-200.622 448.102-448.102s-200.622-448.102-448.102-448.102c-247.48 0-448.102 200.622-448.102 448.102v0c0 0.001 0 0.001 0 0.002 0 247.048 199.922 447.402 446.807 448.101h0.067zM584.090 151.040c-0.113-0.001-0.246-0.002-0.379-0.002-14.724 0-27.061 10.223-30.299 23.958l-0.042 0.211-72.090 265.011c0 2.867 0 4.506 0 7.782v307.2c1.889 16.238 15.563 28.724 32.154 28.724s30.265-12.485 32.139-28.573l0.014-0.151v-301.056l68.813-261.325c0.919-2.881 1.448-6.195 1.448-9.633 0-14.668-9.637-27.084-22.925-31.264l-0.232-0.063z" />
<glyph unicode="&#xe927;" glyph-name="IoT-icons_icon-30minutes" d="M512 960c-282.77 0-512-229.23-512-512s229.23-512 512-512c282.77 0 512 229.23 512 512v0c0 282.77-229.23 512-512 512v0zM512 896.102c247.48 0 448.102-200.622 448.102-448.102s-200.622-448.102-448.102-448.102c-247.48 0-448.102 200.622-448.102 448.102v0c0 247.48 200.622 448.102 448.102 448.102v0zM379.29 192.41c-5.943 0.343-11.405 2.126-16.128 5.002l0.154-0.087c-9.636 5.311-16.056 15.403-16.056 26.994 0 5.098 1.242 9.905 3.439 14.137l-0.081-0.171 128.205 216.269v300.646c0 17.645 14.304 31.949 31.949 31.949s31.949-14.304 31.949-31.949v0-305.562c0.001-0.089 0.002-0.194 0.002-0.3 0-5.866-1.84-11.302-4.975-15.762l0.058 0.087-128.205-224.87c-6.529-9.924-17.615-16.384-30.211-16.384-0.035 0-0.070 0-0.105 0h0.005z" />
<glyph unicode="&#xe928;" glyph-name="IoT-icons_icon-Livewidgets-3-4" d="M157.286 110.899c4.032 4.19 6.515 9.894 6.515 16.179s-2.483 11.99-6.522 16.187l0.007-0.007c-68.803 81.487-110.819 187.537-111.411 303.386l-0.001 0.128c0.354 118.674 45.042 226.843 118.361 308.88l-0.396-0.451c5.48 4.234 8.974 10.808 8.974 18.198 0 12.668-10.27 22.938-22.938 22.938-0.998 0-1.98-0.064-2.944-0.187l0.114 0.012c-0.304 0.017-0.659 0.027-1.017 0.027-6.502 0-12.25-3.223-15.736-8.158l-0.041-0.060c-80.325-90.010-129.413-209.398-129.413-340.251 0-128.672 47.465-246.257 125.84-336.203l-0.524 0.614c4.236-5.026 10.534-8.196 17.574-8.196 0.158 0 0.315 0.002 0.472 0.005h-0.023c5.050 2.14 9.357 4.471 13.412 7.153l-0.305-0.19zM901.12 115.405c76.39 88.801 122.904 205.211 122.904 332.486 0 129.473-48.135 247.703-127.485 337.772l0.485-0.561c-4.162 5.26-10.545 8.604-17.71 8.604-0.11 0-0.22-0.001-0.33-0.002h0.017c-6.559-0.003-12.496-2.663-16.793-6.963v0c-4.63-4.144-7.53-10.138-7.53-16.81 0-5.644 2.076-10.804 5.506-14.757l-0.024 0.028c70.984-81.143 114.278-188.079 114.278-305.126 0-0.009 0-0.018 0-0.027v0.002c0.001-0.363 0.002-0.793 0.002-1.222 0-114.871-42.182-219.889-111.902-300.411l0.489 0.577c-4.081-4.015-6.609-9.597-6.609-15.77s2.528-11.754 6.606-15.767l0.003-0.003c4.522-3.912 10.32-6.462 16.694-6.957l0.1-0.006c2.301-1.361 5.072-2.165 8.030-2.165 5.506 0 10.361 2.785 13.233 7.024l0.036 0.056zM778.24 240.742c44.309 56.274 71.066 128.176 71.066 206.328 0 80.461-28.362 154.299-75.634 212.059l0.472-0.595c-4.088 5.024-10.27 8.207-17.196 8.207-0.291 0-0.58-0.006-0.868-0.017l0.041 0.001c-0.413 0.029-0.895 0.045-1.381 0.045-6.059 0-11.526-2.53-15.405-6.59l-0.008-0.008c-4.519-4.267-7.332-10.299-7.332-16.989 0-5.161 1.675-9.931 4.511-13.797l-0.046 0.065c40.379-49.453 65.019-113.141 65.535-182.568l0.001-0.114c0.003-0.499 0.005-1.089 0.005-1.68 0-66.821-23.156-128.233-61.881-176.651l0.436 0.564c-2.637-3.815-4.211-8.539-4.211-13.631 0-6.674 2.705-12.715 7.079-17.089v0c4.496-3.962 10.309-6.525 16.707-6.958l0.087-0.005c7.333 0.417 13.756 3.989 17.982 9.368l0.040 0.053zM278.938 236.646c4.57 4.139 7.429 10.095 7.429 16.719 0 5.13-1.715 9.859-4.602 13.646l0.040-0.055c-39.003 48.85-62.586 111.504-62.586 179.666 0 70.898 25.514 135.836 67.86 186.135l-0.359-0.438c3.503 4.113 5.633 9.488 5.633 15.36s-2.131 11.247-5.661 15.393l0.028-0.033c-4.496 3.962-10.309 6.525-16.707 6.958l-0.087 0.005c-0.093 0.001-0.203 0.002-0.313 0.002-7.164 0-13.547-3.344-17.674-8.557l-0.036-0.047c-49.378-57.044-79.463-131.969-79.463-213.921 0-0.105 0-0.211 0-0.316v0.016c-0.001-0.348-0.002-0.761-0.002-1.173 0-78.829 27.323-151.275 73.015-208.387l-0.513 0.664c4.046-5.765 10.564-9.558 17.981-9.829l0.041-0.001c7.3 1.031 13.74 4.113 18.882 8.636l-0.040-0.035zM511.181 340.685c-0.121 0-0.265-0.001-0.409-0.001-59.495 0-107.725 48.23-107.725 107.725s48.23 107.725 107.725 107.725c59.495 0 107.725-48.23 107.725-107.725 0-0.144 0-0.287-0.001-0.431v0.022c0-59.269-48.047-107.315-107.315-107.315v0z" />
<glyph unicode="&#xe929;" glyph-name="IoT-icons_icon-error2-copy" d="M659.456 431.616c-4.496 4.047-7.31 9.887-7.31 16.384s2.814 12.337 7.29 16.366l0.020 0.018 350.72 350.72c8.085 8.595 13.239 20.029 13.82 32.656l0.004 0.112c-0.585 12.739-5.739 24.173-13.849 32.794l0.025-0.026-65.536 65.536c-8.595 8.085-20.029 13.239-32.656 13.82l-0.112 0.004c-0.477 0.019-1.038 0.031-1.601 0.031-12.349 0-23.453-5.332-31.135-13.819l-0.032-0.036-350.72-350.72c-4.047-4.496-9.887-7.31-16.384-7.31s-12.337 2.814-16.366 7.29l-0.018 0.020-350.72 350.72c-8.595 8.085-20.029 13.239-32.656 13.82l-0.112 0.004c-12.739-0.585-24.173-5.739-32.794-13.849l0.026 0.025-65.536-65.536c-8.085-8.595-13.239-20.029-13.82-32.656l-0.004-0.112c0.585-12.739 5.739-24.173 13.849-32.794l-0.025 0.026 350.72-350.72c4.496-4.047 7.31-9.887 7.31-16.384s-2.814-12.337-7.29-16.366l-0.020-0.018-350.72-350.72c-8.085-8.595-13.239-20.029-13.82-32.656l-0.004-0.112c0.585-12.739 5.739-24.173 13.849-32.794l-0.025 0.026 65.536-65.536c8.595-8.085 20.029-13.239 32.656-13.82l0.112-0.004c12.739 0.585 24.173 5.739 32.794 13.849l-0.026-0.025 350.72 350.72c4.047 4.496 9.887 7.31 16.384 7.31s12.337-2.814 16.366-7.29l0.018-0.020 350.72-350.72c8.595-8.085 20.029-13.239 32.656-13.82l0.112-0.004c12.739 0.585 24.173 5.739 32.794 13.849l-0.026-0.025 65.536 65.536c8.085 8.595 13.239 20.029 13.82 32.656l0.004 0.112c-0.585 12.739-5.739 24.173-13.849 32.794l0.025-0.026z" />
<glyph unicode="&#xe92a;" glyph-name="IoT-icons_icon-warning-copy" horiz-adv-x="1160" d="M1149.897 47.973l-508.809 876.057c-12.432 20.173-34.403 33.418-59.467 33.418s-47.035-13.245-59.295-33.118l-0.172-0.3-511.71-876.057c-6.513-10.924-10.364-24.090-10.364-38.156 0-13.237 3.41-25.678 9.4-36.492l-0.197 0.387c12.045-22.456 35.281-37.514 62.051-37.711h1017.645c26.798 0.197 50.033 15.255 61.893 37.333l0.185 0.378c5.793 10.427 9.204 22.868 9.204 36.105 0 14.066-3.851 27.233-10.555 38.503l0.191-0.347zM580.17 657.151c1.398 0.141 3.022 0.221 4.665 0.221 26.701 0 48.446-21.221 49.289-47.718l0.002-0.077c0-92.827-10.443-225.686-10.443-318.513 0-23.787-25.527-34.23-43.513-34.23s-44.673 10.443-44.673 34.23c0 92.827-10.443 225.686-10.443 318.513 0.778 26.628 22.55 47.919 49.295 47.919 2.052 0 4.074-0.125 6.060-0.369l-0.238 0.024zM580.17 83.363c-32.042 0-58.017 25.975-58.017 58.017s25.975 58.017 58.017 58.017c32.042 0 58.017-25.975 58.017-58.017v0c0-32.042-25.975-58.017-58.017-58.017v0z" />
<glyph unicode="&#xe92b;" glyph-name="IoT-icons_icon-info-copy" horiz-adv-x="162" d="M25.6 960h110.592c14.138 0 25.6-11.462 25.6-25.6v-110.592c0-14.138-11.462-25.6-25.6-25.6h-110.592c-14.138 0-25.6 11.462-25.6 25.6v110.592c0 14.138 11.462 25.6 25.6 25.6zM25.6 636.416h110.592c14.138 0 25.6-11.462 25.6-25.6v-649.216c0-14.138-11.462-25.6-25.6-25.6h-110.592c-14.138 0-25.6 11.462-25.6 25.6v649.216c0 14.138 11.462 25.6 25.6 25.6z" />
<glyph unicode="&#xe92c;" glyph-name="IoT-icons_icon-success2-copy" horiz-adv-x="1339" d="M15.404 396.767c-8.906 9.267-14.633 21.646-15.397 35.351l-0.006 0.144c0.599 14.094 6.358 26.736 15.422 36.184l-0.018-0.019 72.33 71.66c8.954 9.625 21.691 15.627 35.83 15.627s26.876-6.002 35.802-15.597l0.028-0.030 5.358-5.358 283.291-302.043c4.614-4.658 11.011-7.541 18.082-7.541s13.468 2.884 18.080 7.539l0.002 0.002 690.48 711.911h5.358c8.954 9.625 21.691 15.627 35.83 15.627s26.876-6.002 35.802-15.597l0.028-0.030 72.33-71.66c9.625-8.954 15.627-21.691 15.627-35.83s-6.002-26.876-15.597-35.802l-0.030-0.028-824.424-849.873c-8.387-9.492-20.588-15.447-34.181-15.447-0.698 0-1.392 0.016-2.082 0.047l0.098-0.004c-0.505-0.020-1.098-0.031-1.694-0.031-13.68 0-25.971 5.944-34.432 15.391l-0.039 0.044-401.831 429.959z" />
<glyph unicode="&#xe92d;" glyph-name="IoT-icons-108" horiz-adv-x="699" d="M8.96 589.44c5.223-5.281 12.47-8.551 20.48-8.551s15.257 3.27 20.477 8.549l0.003 0.003 270.080 271.36v-896c0.359-15.982 13.399-28.8 29.433-28.8 0.002 0 0.005 0 0.007 0v0c0.009 0 0.019 0 0.029 0 15.552 0 28.16 12.608 28.16 28.16 0 0.45-0.011 0.898-0.031 1.343l0.002-0.063v896l270.72-270.080c5.292-5.129 12.517-8.291 20.48-8.291s15.188 3.162 20.488 8.298l-0.008-0.007c5.281 5.223 8.551 12.47 8.551 20.48s-3.27 15.257-8.549 20.477l-320.003 320.003c-5.115 4.726-11.979 7.624-19.52 7.624s-14.405-2.898-19.539-7.642l0.019 0.018-320-320c-5.549-5.485-9.282-12.796-10.225-20.957l-0.015-0.163c0-0.022 0-0.049 0-0.075 0-8.464 3.423-16.129 8.961-21.686l-0.001 0.001z" />
<glyph unicode="&#xe92e;" glyph-name="IoT-icons-109" horiz-adv-x="1847" d="M1453.457-64c-17.143 0.253-32.601 7.261-43.872 18.474l0.003-0.003-277.069 257.443-158.16-199.72c-11.731-14.824-29.722-24.25-49.914-24.25-0.31 0-0.62 0.002-0.929 0.007l0.047-0.001c-22.586 1.254-41.847 14.351-51.787 33.14l-0.164 0.339-266.679 483.716-489.488-498.724c-11.654-10.663-27.242-17.196-44.356-17.196-36.342 0-65.804 29.461-65.804 65.804 0 16.826 6.315 32.178 16.705 43.813l-0.056-0.064 555.292 561.064c12.553 11.76 29.481 18.983 48.096 18.983 2.986 0 5.929-0.186 8.817-0.547l-0.345 0.035c20.416-3.724 37.362-16.119 47.157-33.148l0.175-0.331 252.825-474.48 140.843 177.786c11.474 15.529 29.715 25.489 50.282 25.489 17.365 0 33.072-7.1 44.376-18.556l0.007-0.007 256.289-238.972 294.386 801.191c9.078 26.937 34.109 45.99 63.59 45.99 7.394 0 14.507-1.198 21.157-3.411l-0.473 0.136c27.506-8.742 47.086-34.055 47.086-63.941 0-8.554-1.604-16.733-4.528-24.253l0.156 0.456-332.483-893.547c-7.537-20.383-24.664-35.601-45.755-40.326l-0.424-0.080z" />
<glyph unicode="&#xe92f;" glyph-name="email" horiz-adv-x="1483" d="M1408.834 960h-1334.685c-40.951 0-74.149-33.198-74.149-74.149v0-877.185c0-40.951 33.198-74.149 74.149-74.149v0h1334.685c40.951 0 74.149 33.198 74.149 74.149v0 877.185c0 40.951-33.198 74.149-74.149 74.149v0zM692.553 301.555c13.296-10.652 30.365-17.095 48.938-17.095s35.643 6.443 49.094 17.215l-0.156-0.12 124.571 100.843 487.902-395.957h-1319.855l485.677 395.957zM746.682 355.684v0c-1.336-1.311-3.169-2.12-5.19-2.12s-3.854 0.809-5.192 2.121l0.001-0.001-656.22 530.167h1319.855zM513.112 446.888l-444.895-359.623 5.932 717.764zM1413.283 87.264l-444.895 359.623 444.895 360.365z" />
<glyph unicode="&#xe930;" glyph-name="IoT-icons_icon-webhook-86" horiz-adv-x="1036" d="M868.016 271.287c-16.483-0.142-32.337-2.593-47.332-7.045l1.21 0.308-251.854 501.636c4.17 7.481 6.656 16.397 6.737 25.887v0.024c0 31.769-25.754 57.522-57.522 57.522s-57.522-25.754-57.522-57.522v0c0.151-29.539 22.746-53.753 51.594-56.469l0.228-0.017 259.109-511.482c5.321-10.398 15.96-17.392 28.233-17.392 5.202 0 10.111 1.257 14.439 3.483l-0.178-0.083c14.677 7.201 31.943 11.412 50.192 11.412 0.573 0 1.145-0.004 1.716-0.012l-0.086 0.001c2.349 0.165 5.091 0.259 7.855 0.259 65.827 0 119.19-53.363 119.19-119.19s-53.363-119.19-119.19-119.19c-2.764 0-5.505 0.094-8.222 0.279l0.367-0.020c-23.834 0.134-46.023 7.066-64.758 18.952l0.499-0.296c-3.797 2.469-8.442 3.937-13.429 3.937-8.644 0-16.258-4.409-20.716-11.101l-0.057-0.091c-2.352-3.681-3.749-8.169-3.749-12.984 0-8.699 4.56-16.333 11.421-20.641l0.101-0.059c25.326-16.573 56.346-26.432 89.669-26.432 0.359 0 0.717 0.001 1.075 0.003h-0.055c2.786-0.165 6.044-0.259 9.324-0.259 92.73 0 167.903 75.173 167.903 167.903s-75.173 167.903-167.903 167.903c-3.28 0-6.538-0.094-9.772-0.28l0.447 0.021zM414.575 660.988l-253.409-502.154c-28.768-2.866-51.048-26.945-51.048-56.227 0-31.198 25.291-56.489 56.489-56.489 1.916 0 3.81 0.095 5.677 0.282l-0.236-0.019c31.769 0 57.522 25.754 57.522 57.522v0c-0.12 11.542-3.995 22.157-10.459 30.705l0.094-0.13 259.109 509.927c2.124 4.096 3.37 8.942 3.37 14.079 0 12.172-6.994 22.71-17.183 27.815l-0.179 0.081c-38.512 20.139-64.344 59.806-64.344 105.506 0 65.541 53.131 118.672 118.672 118.672s118.672-53.131 118.672-118.672c0-14.037-2.437-27.504-6.911-40.002l0.259 0.828c-0.923-2.496-1.456-5.379-1.456-8.387 0-10.535 6.549-19.54 15.798-23.166l0.169-0.058c2.448-0.885 5.272-1.396 8.216-1.396 10.706 0 19.833 6.764 23.339 16.252l0.056 0.172c5.911 16.362 9.329 35.244 9.329 54.924 0 0.185 0 0.37-0.001 0.554v-0.029c0 93.016-75.405 168.421-168.421 168.421s-168.421-75.405-168.421-168.421v0c0.427-53.126 25.77-100.245 64.903-130.301l0.393-0.29zM816.713 72.291c9.992-15.52 27.104-25.704 46.609-25.911h0.031c1.635-0.165 3.533-0.259 5.454-0.259 31.769 0 57.522 25.754 57.522 57.522s-25.754 57.522-57.522 57.522c-1.92 0-3.819-0.094-5.691-0.278l0.237 0.019c-19.535-0.207-36.648-10.391-46.506-25.69l-0.133-0.221h-496.972c-10.239-0.372-19.132-5.811-24.284-13.871l-0.072-0.121c-4.474-4.257-7.256-10.256-7.256-16.905 0-0.069 0-0.138 0.001-0.207v0.011c0.002-0.24 0.003-0.524 0.003-0.808 0-66.113-53.595-119.709-119.709-119.709s-119.709 53.595-119.709 119.709c0 48.274 28.574 89.873 69.731 108.809l0.744 0.307c7.241 4.31 12.017 12.097 12.017 20.999 0 13.452-10.905 24.356-24.356 24.356-2.818 0-5.524-0.479-8.042-1.359l0.171 0.052c-58.373-27.144-98.118-85.287-98.118-152.714 0-92.73 75.173-167.903 167.903-167.903 81.677 0 149.733 58.32 164.796 135.589l0.172 1.060z" />
<glyph unicode="&#xe931;" glyph-name="IoT-icons_icon-chevron-copy-2" horiz-adv-x="2048" d="M1024 960l1024-1024h-2048l1024 1024z" />
<glyph unicode="&#xe932;" glyph-name="IoT-icons_icon-channels" horiz-adv-x="923" d="M486.313 679.186c-0.049 0.001-0.108 0.001-0.166 0.001-6.152 0-11.139-4.987-11.139-11.139 0 0 0-0.001 0-0.001v0-114.554c0-9.182-7.444-16.626-16.626-16.626v0h-96.431c-0.049 0.001-0.108 0.001-0.166 0.001-6.152 0-11.139-4.987-11.139-11.139 0 0 0-0.001 0-0.001v0-31.257c-0.016-2.051-1.311-3.796-3.126-4.478l-0.033-0.011c-0.512-0.211-1.106-0.333-1.729-0.333-1.269 0-2.42 0.508-3.259 1.331l0.001-0.001-41.731 41.898c-2.087 1.945-4.893 3.144-7.977 3.159h-138.166c-9.182 0-16.626 7.444-16.626 16.626v0 214.476c0 9.182 7.444 16.626 16.626 16.626v0h147.972c6.244 0 11.306 5.062 11.306 11.306v0c0 0 0 0.001 0 0.001 0 6.152-4.987 11.139-11.139 11.139-0.058 0-0.117 0-0.175-0.001h-147.963c-21.18-0.281-38.241-17.516-38.241-38.736 0-0.118 0.001-0.236 0.002-0.354v0.018-213.645c0-0.051 0-0.111 0-0.172 0-21.253 17.042-38.526 38.205-38.899h133.044l38.739-38.572c4.951-5.040 11.839-8.164 19.457-8.164 14.89 0 26.992 11.935 27.262 26.76v19.976h85.458c21.507 0.094 38.905 17.551 38.905 39.071 0 0 0 0 0 0v0 114.554c0 6.152-4.987 11.139-11.139 11.139v0zM179.728 699.137c0 0 0-0.001 0-0.001 0-6.186 4.967-11.211 11.131-11.304h151.639c6.244 0 11.306 5.062 11.306 11.306v0c0.003 0.099 0.005 0.216 0.005 0.334 0 6.152-4.987 11.139-11.139 11.139-0.060 0-0.12 0-0.18-0.001h-151.621c-0.001 0-0.003 0-0.005 0-6.152 0-11.139-4.987-11.139-11.139 0-0.117 0.002-0.233 0.005-0.35v0.017zM179.728 651.254c0-6.152 4.987-11.139 11.139-11.139v0h208.158c0.049-0.001 0.108-0.001 0.166-0.001 6.152 0 11.139 4.987 11.139 11.139 0 0 0 0.001 0 0.001v0c0 6.244-5.062 11.306-11.306 11.306v0h-208.158c-6.172-0.094-11.139-5.119-11.139-11.305 0 0 0-0.001 0-0.001v0zM399.026 614.676h-208.158c-5.627-0.706-9.937-5.461-9.937-11.223s4.31-10.517 9.882-11.217l0.056-0.006h208.158c0.411-0.053 0.886-0.083 1.368-0.083 6.244 0 11.306 5.062 11.306 11.306s-5.062 11.306-11.306 11.306c-0.482 0-0.958-0.030-1.424-0.089l0.056 0.006zM520.562 26.778c11.202 0 20.284 9.081 20.284 20.284s-9.081 20.284-20.284 20.284c-11.202 0-20.284-9.081-20.284-20.284v0c0-11.202 9.081-20.284 20.284-20.284v0zM520.562 55.043c0.049 0.001 0.107 0.002 0.165 0.002 4.499 0 8.147-3.647 8.147-8.147s-3.647-8.147-8.147-8.147c-4.499 0-8.147 3.647-8.147 8.147 0 0.058 0.001 0.116 0.002 0.173v-0.009c0 4.408 3.573 7.981 7.981 7.981v0zM893.153 489.815l-199.513 109.067c-7.831 4.29-17.157 6.813-27.072 6.813-21.326 0-39.925-11.671-49.759-28.975l-0.148-0.283-245.401-447.74c-4.435-7.882-7.048-17.303-7.048-27.334 0-21.309 11.79-39.864 29.203-49.497l0.29-0.147 199.513-108.901c7.881-4.351 17.267-6.931 27.251-6.983h0.016c0.075 0 0.164-0.001 0.253-0.001 21.165 0 39.638 11.531 49.478 28.653l0.147 0.277 245.235 448.239c4.355 7.838 6.918 17.19 6.918 27.14 0 21.285-11.729 39.83-29.076 49.525l-0.287 0.147zM649.913-23.765c-5.938-10.682-17.157-17.79-30.035-17.79-0.020 0-0.041 0-0.061 0h0.003c-0.018 0-0.040 0-0.062 0-6.065 0-11.771 1.539-16.748 4.248l0.184-0.092-199.513 109.067c-8.019 4.224-14.003 11.401-16.566 20.049l-0.060 0.235c-0.93 2.92-1.465 6.279-1.465 9.763 0 6.006 1.592 11.64 4.378 16.503l-0.086-0.163 16.626 30.259 259.034-141.82zM867.216 371.936l-190.036-345.822-258.868 141.82 1.33 2.494 190.202 345.822 258.868-141.654zM895.813 423.809l-16.626-29.594-258.535 141.82 16.626 29.594c6.004 10.593 17.202 17.624 30.041 17.624 0.018 0 0.037 0 0.055 0h-0.003c0.155 0.003 0.338 0.004 0.521 0.004 5.911 0 11.462-1.542 16.273-4.247l-0.167 0.086 199.513-108.901c7.942-4.391 13.886-11.579 16.56-20.204l0.066-0.246c0.612-2.386 0.964-5.126 0.964-7.947 0-6.683-1.972-12.906-5.365-18.118l0.078 0.128zM821.661 477.844l-9.976 5.487c-1.545 0.814-3.373 1.302-5.312 1.33h-0.009c-0.475 0.076-1.022 0.12-1.579 0.12s-1.105-0.044-1.639-0.127l0.059 0.008c-2.906-0.8-5.264-2.724-6.623-5.263l-0.028-0.057c-0.909-1.549-1.446-3.412-1.446-5.4 0-1.098 0.164-2.158 0.468-3.156l-0.020 0.077c0.872-2.963 2.842-5.366 5.428-6.787l0.059-0.030 9.809-5.487c1.531-0.792 3.341-1.256 5.26-1.256 4.255 0 7.977 2.284 10.007 5.692l0.029 0.053c0.913 1.581 1.451 3.476 1.451 5.498 0 1.122-0.166 2.205-0.474 3.226l0.020-0.079c-1.034 2.688-2.967 4.837-5.423 6.122l-0.063 0.030zM782.423 497.296l-64.177 36.079c-1.549 0.909-3.412 1.446-5.4 1.446-1.098 0-2.158-0.164-3.156-0.468l0.077 0.020c-4.856-1.271-8.381-5.62-8.381-10.793 0-4.229 2.357-7.908 5.829-9.795l0.059-0.029 64.177-35.912c1.537-0.784 3.352-1.244 5.274-1.244 4.209 0 7.903 2.203 9.993 5.518l0.029 0.049c0.842 1.544 1.338 3.381 1.338 5.334 0 4.166-2.253 7.805-5.607 9.766l-0.054 0.029zM359.456 228.453l-56.362 160.608c-3.001 8.214-8.902 14.762-16.434 18.534l-0.192 0.087c-3.999 1.993-8.711 3.16-13.695 3.16-0.095 0-0.19 0-0.285-0.001h0.015c-3.819-0.028-7.473-0.696-10.873-1.901l0.233 0.072-240.081-84.627c-12.712-4.865-21.575-16.965-21.575-31.134 0-3.669 0.594-7.199 1.692-10.499l-0.068 0.235 56.362-160.774c4.837-12.767 16.965-21.679 31.173-21.679 0.731 0 1.457 0.024 2.177 0.070l-0.098-0.005c3.045 0.226 5.872 0.877 8.515 1.898l-0.202-0.069 239.914 83.13c12.738 4.852 21.624 16.965 21.624 31.153 0 3.724-0.612 7.304-1.741 10.647l0.069-0.234zM257.205 385.735l-81.8-117.546-137.331 40.235zM332.522 205.841l-239.582-84.128c-0.625-0.108-1.344-0.17-2.078-0.17s-1.453 0.062-2.154 0.18l0.075-0.011c-0.125-0.005-0.272-0.007-0.42-0.007-4.805 0-8.949 2.831-10.855 6.917l-0.031 0.074-57.194 163.767 163.434-48.548 98.925 141.82 57.692-164.598c0.404-1.149 0.637-2.474 0.637-3.854 0-5.355-3.517-9.889-8.367-11.419l-0.085-0.023zM448.904 960c-69.143 0-125.194-56.051-125.194-125.194s56.051-125.194 125.194-125.194c69.143 0 125.194 56.051 125.194 125.194 0 0.058 0 0.117 0 0.175v-0.009c-0.095 69.071-56.11 125.028-125.194 125.028 0 0 0 0 0 0v0zM448.904 730.56c-57.665 0-104.412 46.747-104.412 104.412s46.747 104.412 104.412 104.412c57.665 0 104.412-46.747 104.412-104.412v0c0-57.665-46.747-104.412-104.412-104.412v0zM448.904 833.974c0.159-0.009 0.344-0.013 0.531-0.013 5.497 0 10.005 4.234 10.44 9.619l0.002 0.037v58.191c-0.677 5.19-5.071 9.157-10.391 9.157s-9.715-3.967-10.386-9.105l-0.006-0.053v-58.191c0.417-5.206 4.585-9.317 9.779-9.642l0.030-0.002zM448.904 803.549c-11.753 0-21.281-9.528-21.281-21.281s9.528-21.281 21.281-21.281c11.753 0 21.281 9.528 21.281 21.281v0c0 0.050 0.001 0.108 0.001 0.167 0 11.662-9.454 21.115-21.115 21.115-0.059 0-0.117 0-0.176-0.001h0.009zM448.904 782.267s0 0 0 0 0 0 0 0ch0.998z" />
<glyph unicode="&#xe933;" glyph-name="IoT-icons_icon-add-copy" d="M744.96 478.208h-194.56v194.048c0.163 1.218 0.256 2.626 0.256 4.056 0 17.814-14.442 32.256-32.256 32.256s-32.256-14.442-32.256-32.256c0-1.43 0.093-2.838 0.273-4.218l-0.017 0.163v-194.048h-194.048c-1.218 0.163-2.626 0.256-4.056 0.256-17.814 0-32.256-14.442-32.256-32.256s14.442-32.256 32.256-32.256c1.43 0 2.838 0.093 4.218 0.273l-0.163-0.017h194.048v-194.56c2.084-15.984 15.615-28.2 32-28.2s29.916 12.216 31.983 28.038l0.017 0.163v194.56h194.56c15.984 2.084 28.2 15.615 28.2 32s-12.216 29.916-28.038 31.983l-0.163 0.017zM512 960c-282.77 0-512-229.23-512-512s229.23-512 512-512c282.77 0 512 229.23 512 512v0c0 282.77-229.23 512-512 512v0zM512 0c-247.424 0-448 200.576-448 448s200.576 448 448 448c247.424 0 448-200.576 448-448v0c-0.581-247.189-200.811-447.419-447.944-448h-0.056z" />
<glyph unicode="&#xe934;" glyph-name="IoT-icons-node-js" horiz-adv-x="931" d="M423.268 948.977c12.12 7 26.658 11.129 42.161 11.129s30.042-4.13 42.575-11.349l-0.414 0.22 385.791-216.594c23.922-13.614 39.877-38.799 40.232-67.739v-434.892c-0.683-30.046-17.733-55.957-42.556-69.231l-0.432-0.211-384.689-215.492c-11.579-6.432-25.394-10.218-40.094-10.218-16.611 0-32.093 4.835-45.116 13.174l0.335-0.201-114.635 66.136c-8.759 3.68-16.137 9.114-21.981 15.906l-0.065 0.077c4.409 6.062 13.227 7.165 20.392 9.92 17.493 6.338 32.398 13.396 46.513 21.657l-1.321-0.714c1.605 1.164 3.614 1.863 5.787 1.863s4.182-0.698 5.816-1.883l-0.029 0.020 98.101-55.113c6.614-4.409 13.778 0 19.841 4.409l375.32 211.634c3.995 2.039 6.682 6.123 6.682 10.835 0 0.454-0.025 0.903-0.074 1.345l0.005-0.054v428.779c0.008 0.177 0.013 0.385 0.013 0.594 0 5.621-3.366 10.456-8.192 12.599l-0.088 0.035-380.28 214.39c-2.032 1.591-4.624 2.551-7.44 2.551s-5.409-0.96-7.467-2.571l0.027 0.020-380.831-214.39c-4.62-2.13-7.768-6.721-7.768-12.048 0-0.415 0.019-0.826 0.057-1.231l-0.004 0.052v-429.882c-0.044-0.387-0.069-0.836-0.069-1.29 0-4.712 2.688-8.796 6.614-10.803l0.069-0.032 101.959-55.113c11.613-7.284 25.728-11.604 40.852-11.604 8.036 0 15.788 1.22 23.079 3.485l-0.551-0.147c18.852 6.069 32.551 22.737 34.159 42.816l0.011 0.173v429.33c-0.009 0.165-0.015 0.357-0.015 0.551 0 5.783 4.688 10.471 10.471 10.471 0.005 0 0.010 0 0.015 0h44.641c6.15-0.302 11.023-5.362 11.023-11.561 0-0.005 0-0.009 0-0.014v0.001-431.535c0.086-1.625 0.134-3.528 0.134-5.443 0-39.055-20.311-73.365-50.947-92.945l-0.443-0.265c-19.466-9.26-42.3-14.667-66.398-14.667-27.139 0-52.676 6.859-74.973 18.938l0.832-0.413c-36.926 18.738-72.749 40.784-110.226 60.624-23.396 13.555-39.035 38.224-39.68 66.596l-0.002 0.090v434.842c0.171 29.624 16.659 55.358 40.926 68.686l0.409 0.206zM534.596 648.060c11.618 1.584 25.046 2.488 38.685 2.488 45.952 0 89.507-10.262 128.498-28.62l-1.844 0.78c36.9-22.205 61.204-62.042 61.204-107.555 0-0.939-0.010-1.876-0.031-2.81l0.002 0.139c-1.436-4.874-5.871-8.372-11.122-8.372-0.548 0-1.087 0.038-1.615 0.112l0.061-0.007h-48.499c-0.314-0.030-0.679-0.048-1.048-0.048-6.392 0-11.574 5.182-11.574 11.574 0 1.197 0.182 2.351 0.519 3.436l-0.022-0.082c-4.045 21.702-17.044 39.765-34.936 50.517l-0.336 0.187c-22.69 9.32-49.027 14.731-76.628 14.731-6.979 0-13.877-0.346-20.679-1.022l0.859 0.069c-0.873 0.020-1.901 0.031-2.932 0.031-24.404 0-47.326-6.345-67.207-17.474l0.696 0.358c-9.999-8.148-16.333-20.462-16.333-34.256 0-4.692 0.733-9.212 2.090-13.453l-0.086 0.312c4.96-12.125 19.29-16.534 30.863-19.841 67.238-17.636 137.783-15.983 203.367-39.13 28.661-8.134 51.506-28.272 63.134-54.491l0.246-0.622c4.021-11.489 6.343-24.735 6.343-38.523 0-28.731-10.085-55.107-26.908-75.781l0.173 0.22c-22.431-23.54-51.872-40.217-84.967-46.682l-1.010-0.164c-24.954-5.151-53.632-8.099-82.999-8.099-16.582 0-32.945 0.94-49.037 2.77l1.969-0.182c-43.409 2.871-82.666 18.589-114.558 43.342l0.474-0.354c-23.871 21.756-38.793 52.977-38.793 87.684 0 2.502 0.078 4.985 0.23 7.448l-0.017-0.337c0.546 5.319 5.002 9.433 10.42 9.433 0.407 0 0.808-0.023 1.202-0.068l-0.048 0.004h48.499c0.165 0.009 0.357 0.014 0.551 0.014 6.088 0 11.023-4.935 11.023-11.023 0-0.005 0-0.010 0-0.015v0.001c1.067-22.217 11.511-41.799 27.431-55.012l0.125-0.101c27.087-13.323 58.96-21.115 92.653-21.115 6.186 0 12.31 0.263 18.362 0.777l-0.789-0.054c3.311-0.257 7.17-0.403 11.064-0.403 29.794 0 57.587 8.566 81.051 23.369l-0.628-0.37c9.495 9.053 15.399 21.799 15.399 35.924 0 4.47-0.591 8.803-1.7 12.923l0.079-0.347c-3.858 14.329-18.738 20.943-31.414 25.352-66.136 20.943-137.783 13.227-203.367 36.926-28.14 8.561-50.501 28.58-62.028 54.485l-0.25 0.628c-4.96 12.089-7.839 26.12-7.839 40.824 0 29.225 11.374 55.794 29.937 75.521l-0.053-0.057c29.469 25.892 67.727 42.421 109.78 44.623l0.446 0.019z" />
<glyph unicode="&#xe935;" glyph-name="IoT-icons-try-it-out" horiz-adv-x="1079" d="M929.045 435.052v-354.462h-779.060v354.462h-149.985v-426.757c0-0.005 0-0.012 0-0.018 0-40.523 32.851-73.374 73.374-73.374 0.569 0 1.137 0.006 1.703 0.019l-0.084-0.002h929.045c0.482-0.011 1.049-0.018 1.619-0.018 40.523 0 73.374 32.851 73.374 73.374 0 0.006 0 0.013 0 0.019v-0.001 426.757zM553.003 951.368l215.806-250.875s32.371-29.673-2.698-29.673h-121.93v-365.252s4.856-17.264-23.199-17.264h-169.947c-19.962 0-19.423 14.567-19.423 14.567v360.396h-111.68c-43.161 0-10.79 31.292-10.79 31.292s182.356 234.15 208.253 258.967c4.371 4.939 10.726 8.037 17.804 8.037s13.433-3.098 17.782-8.012l0.022-0.025z" />
<glyph unicode="&#xe936;" glyph-name="IoT-icons-pyhton" horiz-adv-x="1014" d="M501.21 960c-1.098 0.006-2.398 0.010-3.698 0.010-40.037 0-79.294-3.339-117.507-9.754l4.13 0.573c-103.587-17.804-122.47-56.11-122.47-126.786v-93.336h244.94v-30.752h-336.658c-0.67 0.011-1.461 0.017-2.253 0.017-74.322 0-136.285-52.916-150.268-123.129l-0.162-0.976c-11.042-37.259-17.396-80.066-17.396-124.358s6.354-87.1 18.2-127.562l-0.804 3.204c17.264-72.295 58.807-122.47 130.023-122.47h84.164v107.903c0.592 84.413 68.405 152.794 152.541 154.299l0.142 0.002h244.4c67.473 0.608 121.935 55.446 121.935 123.005 0 0.381-0.002 0.762-0.005 1.142v-0.058 233.071c-4.249 66.714-55.834 120.156-121.324 127.272l-0.606 0.053c-36.111 5.514-77.774 8.663-120.173 8.663-2.515 0-5.027-0.011-7.536-0.033l0.383 0.003zM368.489 886.086c0.643 0.032 1.397 0.049 2.154 0.049 25.923 0 46.938-21.015 46.938-46.938s-21.015-46.938-46.938-46.938c-25.716 0-46.602 20.68-46.934 46.317v0.031c-0.018 0.486-0.029 1.057-0.029 1.631 0 24.958 19.937 45.259 44.754 45.846l0.055 0.001zM781.218 699.414v-107.903c-1.163-84.293-68.579-152.463-152.462-154.836l-0.221-0.005h-244.4c-67.593-1.501-121.884-56.358-122.47-124.032v-232.587c0-66.36 57.728-107.903 122.47-124.628 36.537-11.803 78.574-18.607 122.2-18.607s85.663 6.804 125.107 19.409l-2.907-0.802c61.505 17.804 121.93 53.952 121.93 124.628v91.718h-243.861v32.91h366.331c71.216 0 97.652 49.635 122.47 124.089 11.807 37.117 18.611 79.808 18.611 124.089s-6.804 86.971-19.424 127.084l0.813-2.996c-17.804 70.677-51.254 124.089-122.47 124.089zM643.642 109.724c0.317 0.008 0.691 0.012 1.066 0.012 25.625 0 46.398-20.773 46.398-46.398s-20.773-46.398-46.398-46.398c-25.241 0-45.775 20.156-46.384 45.25l-0.001 0.057c-0.008 0.321-0.013 0.7-0.013 1.079 0 25.029 20.29 45.319 45.319 45.319 0.005 0 0.009 0 0.014 0h-0.001z" />
<glyph unicode="&#xe937;" glyph-name="IoT-icons-Message-Template" horiz-adv-x="781" d="M757.804 732.383l-220.452 220.452c-5.976 4.476-13.513 7.167-21.679 7.167-0.129 0-0.257-0.001-0.385-0.002h-455.214c-33.178 0-60.073-26.896-60.073-60.073v0-904.956c0.303-33.167 26.953-60.010 60.015-60.623l0.058-0.001h661.356c33.235 0.607 60.017 27.389 60.623 60.567l0.001 0.057v680.646c-0.422 22.229-9.612 42.232-24.245 56.762l-0.005 0.005zM721.429 703.724h-182.424c-7.987 0.55-14.33 6.893-14.878 14.831l-0.003 0.050v182.424zM721.429-24.319h-661.356c-11.262 0-20.392 9.13-20.392 20.392v0 0 903.854c0.299 11.14 9.252 20.093 20.364 20.391l0.028 0.001h426.024v-202.816c0-30.438 24.675-55.113 55.113-55.113v0h201.163v-667.419c-0.303-10.721-9.067-19.297-19.833-19.297-0.196 0-0.392 0.003-0.587 0.009l0.029-0.001zM758.906 732.383l-220.452 220.452c-5.983 4.492-13.533 7.193-21.715 7.193-0.504 0-1.005-0.010-1.504-0.031l0.071 0.002h-455.234c-33.178 0-60.073-26.896-60.073-60.073v0-904.956c0.303-33.167 26.953-60.010 60.015-60.623l0.058-0.001h661.356c33.235 0.607 60.017 27.389 60.623 60.567l0.001 0.057v680.646c-0.422 22.229-9.612 42.232-24.245 56.762l-0.005 0.005zM722.532 703.724h-183.526c-7.987 0.55-14.33 6.893-14.878 14.831l-0.003 0.050v182.424zM722.532-24.319h-661.356c-11.262 0-20.392 9.13-20.392 20.392v0 0 903.854c0.258 10.779 8.622 19.525 19.215 20.387l0.075 0.005h426.024v-202.816c0-30.438 24.675-55.113 55.113-55.113v0h201.163v-667.419c-0.303-10.721-9.067-19.297-19.833-19.297-0.196 0-0.392 0.003-0.587 0.009l0.029-0.001zM245.804 405.563v-25.903c0-0.005 0-0.011 0-0.016 0-4.981-3.886-9.053-8.792-9.352l-0.026-0.001h-8.267c-0.484 0.235-1.053 0.372-1.653 0.372s-1.169-0.137-1.676-0.382l0.023 0.010s0 0 0 0 0-3.307 0-6.614c-0.404-1.905-0.635-4.095-0.635-6.338s0.231-4.433 0.671-6.545l-0.036 0.207v-23.699c0-6.614 0-13.227 0-19.29-1.087-5.604-2.805-10.587-5.115-15.223l0.154 0.342c-1.027-3.339-2.948-6.15-5.482-8.244l-0.029-0.023c2.11-2.047 3.655-4.666 4.386-7.606l0.023-0.11c3.844-9.725 6.073-20.991 6.073-32.777 0-0.49-0.004-0.979-0.012-1.467l0.001 0.074v-35.272c-3.121-5.492-4.961-12.066-4.961-19.069 0-0.078 0-0.155 0.001-0.233v0.012-6.614s0 0 0 0 0 0 4.409 0h6.062c4.87 0 8.818-3.948 8.818-8.818v0 0-26.454c0-4.87-3.948-8.818-8.818-8.818v0h-2.756c-0.782-0.060-1.695-0.094-2.615-0.094-13.431 0-25.162 7.279-31.462 18.108l-0.093 0.174c-6.754 12.222-10.729 26.795-10.729 42.295 0 2.377 0.093 4.733 0.277 7.063l-0.020-0.308v35.272c0.161 1.107 0.253 2.385 0.253 3.685 0 4.93-1.321 9.552-3.629 13.53l0.069-0.129c-0.809 0.38-1.756 0.601-2.756 0.601s-1.947-0.222-2.796-0.618l0.041 0.017h-5.511c-0.165-0.011-0.357-0.017-0.551-0.017-4.87 0-8.818 3.948-8.818 8.818 0 0.006 0 0.012 0 0.018v-0.001 26.454c0 4.87 3.948 8.818 8.818 8.818v0h6.062s3.307 0 4.409 0v0s0 0 0 6.062 0 6.062 0 11.023v24.801c0 8.818 0 18.187 0 27.005 1.745 7.914 4.6 14.915 8.441 21.252l-0.174-0.309c4.346 9.008 12.54 15.57 22.39 17.601l0.207 0.036c5.811 3.125 12.715 4.962 20.049 4.962 0.121 0 0.241 0 0.361-0.001h6.596c3.307 0 6.614 0 6.614-8.267zM322.962 236.917c1.575-2.958 2.5-6.469 2.5-10.196s-0.925-7.238-2.557-10.315l0.058 0.12c-2.967-5.877-7.505-10.592-13.065-13.695l-0.162-0.083c-3.096-1.307-6.695-2.067-10.471-2.067s-7.376 0.76-10.653 2.135l0.182-0.068c-5.722 3.186-10.26 7.901-13.143 13.596l-0.084 0.183c-1.575 2.958-2.5 6.469-2.5 10.196s0.925 7.238 2.557 10.315l-0.058-0.12c2.804 5.986 7.389 10.748 13.065 13.702l0.162 0.077c3.128 1.043 6.73 1.644 10.471 1.644s7.343-0.601 10.713-1.713l-0.241 0.069c4.959-3.348 8.775-8.052 10.954-13.58l0.069-0.198zM415.552 236.917c1.322-3.007 2.091-6.511 2.091-10.196s-0.769-7.189-2.156-10.363l0.065 0.167c-3.163-5.901-7.877-10.615-13.602-13.692l-0.176-0.087c-3.007-1.322-6.511-2.091-10.196-2.091s-7.189 0.769-10.363 2.156l0.167-0.065c-6.010 3.009-10.769 7.768-13.699 13.604l-0.079 0.175c-1.575 2.958-2.5 6.469-2.5 10.196s0.925 7.238 2.557 10.315l-0.058-0.12c2.86 6.113 7.666 10.918 13.606 13.706l0.172 0.073c3.043 1.040 6.55 1.64 10.196 1.64s7.152-0.6 10.425-1.707l-0.229 0.067c3.1-1.175 5.701-3.067 7.691-5.48l0.025-0.031c2.836-1.78 4.971-4.451 6.033-7.615l0.029-0.101zM508.693 236.917c1.322-3.007 2.091-6.511 2.091-10.196s-0.769-7.189-2.156-10.363l0.065 0.167c-3.009-6.010-7.768-10.769-13.604-13.699l-0.175-0.079c-3.011-1.292-6.516-2.044-10.196-2.044s-7.185 0.751-10.369 2.109l0.173-0.065c-6.010 3.009-10.769 7.768-13.699 13.604l-0.079 0.175c-1.322 3.007-2.091 6.511-2.091 10.196s0.769 7.189 2.156 10.363l-0.065-0.167c2.86 6.113 7.666 10.918 13.606 13.706l0.172 0.073c3.043 1.040 6.55 1.64 10.196 1.64s7.152-0.6 10.425-1.707l-0.229 0.067c5.229-3.217 9.254-7.953 11.507-13.589l0.067-0.19zM620.022 298.644v-26.454c0.013-0.171 0.020-0.37 0.020-0.571 0-4.566-3.701-8.267-8.267-8.267-0.201 0-0.4 0.007-0.597 0.021l0.027-0.002h-4.96c-2.756 0-3.858 0-4.96 0s0 0 0 0 0 0 0-6.062 0-6.062 0-11.023v-36.375c0.401-3.883 0.63-8.391 0.63-12.952s-0.229-9.068-0.676-13.512l0.046 0.56c-1.182-7.937-4.105-15.024-8.371-21.1l0.104 0.157c-3.378-5.747-8.271-10.285-14.133-13.141l-0.196-0.086c-5.935-3.059-12.942-4.884-20.367-4.96h-14.906c-0.005 0-0.011 0-0.016 0-4.981 0-9.053 3.886-9.352 8.792l-0.001 0.026v25.903c0 0.005 0 0.011 0 0.016 0 4.981 3.886 9.053 8.792 9.352l0.026 0.001h8.267c0.632-0.371 1.393-0.591 2.205-0.591s1.572 0.219 2.225 0.602l-0.021-0.011s0 0 0 0c1.697 1.691 2.749 4.029 2.756 6.612v0.001c0.13 1.813 0.204 3.929 0.204 6.062s-0.074 4.249-0.219 6.345l0.016-0.283v35.823c-0.394 2.979-0.618 6.423-0.618 9.92s0.225 6.941 0.66 10.32l-0.042-0.4c0 5.511 0 9.92 3.307 14.881 1.175 3.1 3.067 5.701 5.48 7.691l0.031 0.025c-2.224 2.169-3.795 4.998-4.394 8.171l-0.015 0.096c-3.852 9.509-6.087 20.539-6.087 32.090 0 0.731 0.009 1.461 0.027 2.188l-0.002-0.108v22.596c0.383 2.071 0.603 4.455 0.603 6.889s-0.219 4.818-0.639 7.131l0.036-0.242s0 3.858 0 6.062 0 2.756 0 2.756h-10.471c-0.005 0-0.011 0-0.016 0-4.981 0-9.053 3.886-9.352 8.792l-0.001 0.026v26.454c0.282 5.057 4.312 9.087 9.343 9.368l0.026 0.001h4.96c0.412 0.016 0.896 0.025 1.383 0.025 13.9 0 26.057-7.457 32.691-18.589l0.096-0.174c6.445-11.902 10.234-26.056 10.234-41.095 0-2.606-0.114-5.186-0.337-7.735l0.023 0.331v-24.25c0-9.92 0-14.881 3.307-17.085 0.898-0.364 1.94-0.576 3.031-0.576s2.133 0.211 3.087 0.596l-0.056-0.020h1.653c7.165-2.756 11.574-6.614 11.574-11.023z" />
<glyph unicode="&#xe938;" glyph-name="IoT-icons_pilot" d="M154.316 570.351c-1.253-10.958-1.967-23.658-1.967-36.525 0-42.498 7.796-83.175 22.036-120.679l-0.779 2.337c22.596-61.175 50.704-95.897 150.459-126.209s121.249-4.96 137.783 8.818c11.609 14.604 29.372 23.884 49.303 23.884 17.059 0 32.53-6.799 43.852-17.834l-0.013 0.013c21.935-19.688 51.086-31.727 83.048-31.727 21.448 0 41.63 5.421 59.25 14.968l-0.658-0.326c51.703 12.454 95.986 39.014 129.928 75.355l0.138 0.15c24.293 46.432 39.987 100.923 43.485 158.706l0.054 1.122c0 58.42-6.614 65.584-33.068 71.647-92.614 17.938-199.122 28.2-308.026 28.2-6.221 0-12.434-0.033-18.639-0.1l0.947 0.008c-171.953 0-346.11-9.92-357.132-51.806zM804.65 455.165v0l-220.452-101.408 22.045 65.033h-185.18l19.841-65.033-220.452 101.408 220.452 101.408-20.392-65.033h185.731l-17.636 65.033zM917.632 960h-811.264c-58.746 0-106.368-47.623-106.368-106.368v0-811.815c0-0.002 0-0.004 0-0.006 0-58.441 47.376-105.817 105.817-105.817 0.388 0 0.775 0.002 1.161 0.006h811.205c58.441 0 105.817 47.376 105.817 105.817v0 811.815c0.001 0.164 0.001 0.358 0.001 0.553 0 58.441-47.376 105.817-105.817 105.817-0.194 0-0.388-0.001-0.582-0.002h0.030zM512.551 23.079c-233.831 0.315-423.267 189.944-423.267 423.819 0 234.069 189.75 423.819 423.819 423.819 233.681 0 423.19-189.122 423.818-422.656v-0.060c0.002-0.491 0.003-1.073 0.003-1.655 0-233.764-189.504-423.268-423.268-423.268-0.389 0-0.778 0.001-1.166 0.002h0.061z" />
<glyph unicode="&#xe939;" glyph-name="topic" d="M10.24 585.728l492.544-211.968c1.982-0.724 4.27-1.142 6.656-1.142s4.674 0.418 6.795 1.186l-0.139-0.044 492.544 210.432c6.125 2.936 10.28 9.088 10.28 16.21 0 0.422-0.015 0.84-0.043 1.254l0.003-0.056c-0.104 7.41-4.962 13.658-11.656 15.838l-0.12 0.034-495.104 185.856c3.072 3.072 0 3.072 0 3.072-0.844 0.251-1.813 0.395-2.816 0.395s-1.972-0.144-2.888-0.413l0.072 0.018-494.592-188.928c-6.354-2.848-10.888-8.743-11.766-15.774l-0.010-0.098c-0.002-0.101-0.003-0.221-0.003-0.341 0-6.927 4.169-12.881 10.135-15.489l0.109-0.042zM1012.736 475.136c-2.154 0.489-4.628 0.769-7.168 0.769s-5.014-0.28-7.393-0.811l0.225 0.042-486.4-207.872-486.4 207.872c-2.154 0.489-4.628 0.769-7.168 0.769s-5.014-0.28-7.393-0.811l0.225 0.042c-4.591-2.054-8.186-5.649-10.189-10.114l-0.051-0.126c-1.365-2.856-2.162-6.207-2.162-9.744 0-2.557 0.416-5.016 1.185-7.314l-0.047 0.163c1.914-4.682 5.558-8.326 10.117-10.195l0.123-0.045 494.080-211.968c1.74-0.742 3.763-1.173 5.888-1.173s4.148 0.431 5.989 1.211l-0.101-0.038 494.592 211.968c6.344 0.019 11.681 4.308 13.289 10.143l0.023 0.097c0.725 2.14 1.143 4.605 1.143 7.168s-0.418 5.028-1.191 7.331l0.047-0.163c-2.844 5.131-6.627 9.405-11.155 12.724l-0.109 0.076zM998.4 330.752l-486.4-207.36-486.4 207.36c-2.14 0.725-4.605 1.143-7.168 1.143s-5.028-0.418-7.331-1.191l0.163 0.047c-4.682-1.914-8.326-5.558-10.195-10.117l-0.045-0.123c-0.725-2.14-1.143-4.605-1.143-7.168s0.418-5.028 1.191-7.331l-0.047 0.163c1.92-4.544 5.578-8.035 10.119-9.689l0.121-0.039 494.080-211.968c1.74-0.742 3.763-1.173 5.888-1.173s4.148 0.431 5.989 1.211l-0.101-0.038 494.592 209.92c6.332 0.66 11.357 5.511 12.279 11.7l0.009 0.076c0.725 2.14 1.143 4.605 1.143 7.168s-0.418 5.028-1.191 7.331l0.047-0.163c-2.651 4.16-6.079 7.589-10.108 10.161l-0.132 0.079c-2.287 0.835-4.927 1.318-7.68 1.318s-5.393-0.483-7.84-1.368l0.16 0.051z" />
<glyph unicode="&#xe93a;" glyph-name="minor" d="M819.2 960h-614.4l-204.8-204.8v-614.4l204.8-204.8h614.4l204.8 204.8v614.4c-81.92 81.92-128 122.88-204.8 204.8zM286.72 586.24c0 5.12 5.12 5.12 10.24 5.12s5.12 0 10.24-5.12l204.8-194.56 207.872 197.632c2.704 2.796 6.488 4.532 10.679 4.532 8.2 0 14.848-6.648 14.848-14.848 0-5.745-3.263-10.728-8.036-13.197l-0.083-0.039-215.040-204.8c-2.705-2.427-6.299-3.911-10.24-3.911s-7.535 1.484-10.254 3.924l0.014-0.013-215.040 204.8c-2.427 2.705-3.911 6.299-3.911 10.24s1.484 7.535 3.924 10.254l-0.013-0.014zM793.6 458.24l-261.12-250.88c-5.451-4.754-12.627-7.652-20.48-7.652s-15.029 2.898-20.517 7.684l0.037-0.032-261.12 250.88c-4.658 5.489-7.49 12.653-7.49 20.48s2.832 14.991 7.528 20.526l-0.038-0.046c1.46 1.97 3.15 3.66 5.055 5.074l0.065 0.046c4.225 3.196 9.568 5.12 15.36 5.12 8.346 0 15.76-3.994 20.433-10.176l0.047-0.064 240.64-230.4 240.64 230.4c5.391 6.867 13.692 11.238 23.014 11.238 16.118 0 29.184-13.066 29.184-29.184 0-9.322-4.371-17.624-11.175-22.967l-0.063-0.048z" />
<glyph unicode="&#xe93b;" glyph-name="warning_1" d="M819.2 960h-614.4l-204.8-204.8v-614.4l204.8-204.8h614.4l204.8 204.8v614.4zM512 698.88c1.297 0.142 2.802 0.223 4.326 0.223 21.643 0 39.461-16.376 41.738-37.413l0.016-0.186v-3.584c0-81.408-10.24-199.68-10.24-281.6-1.591-17.326-16.052-30.79-33.658-30.79-0.768 0-1.529 0.026-2.284 0.076l0.102-0.005c-20.48 0-40.96 10.24-40.96 30.72 0 81.92-10.24 199.68-10.24 281.6 4.926 23.542 25.512 40.97 50.168 40.97 0.363 0 0.725-0.004 1.086-0.011l-0.054 0.001zM512 197.12c-28.277 0-51.2 22.923-51.2 51.2v0c-0.001 0.11-0.001 0.24-0.001 0.37 0 26.112 19.547 47.659 44.807 50.805l0.25 0.025h6.144c27.424-2.026 49.174-23.776 51.189-51.018l0.011-0.182c0-28.277-22.923-51.2-51.2-51.2v0z" />
<glyph unicode="&#xe93c;" glyph-name="critical" d="M819.2 960h-614.4l-204.8-204.8v-614.4l204.8-204.8h614.4l204.8 204.8v614.4zM716.8 289.28c4.754-5.451 7.652-12.627 7.652-20.48s-2.898-15.029-7.684-20.517l0.032 0.037c-5.354-5.389-12.407-9.085-20.288-10.217l-0.192-0.023c-8.073 1.155-15.126 4.851-20.478 10.238l-0.002 0.002-163.84 158.72-158.72-163.84c-5.354-5.389-12.407-9.085-20.288-10.217l-0.192-0.023c-9.763 1.085-18.504 4.766-25.72 10.329l0.12-0.089c-4.754 5.451-7.652 12.627-7.652 20.48s2.898 15.029 7.684 20.517l-0.032-0.037 163.84 163.84-163.84 158.72c-4.795 6.338-7.68 14.352-7.68 23.040s2.885 16.702 7.75 23.137l-0.070-0.097c5.451 4.754 12.627 7.652 20.48 7.652s15.029-2.898 20.517-7.684l-0.037 0.032 163.84-163.84 158.72 163.84c4.847 3.719 10.999 5.96 17.674 5.96 9.479 0 17.903-4.519 23.234-11.521l0.052-0.071c3.565-4.896 5.703-11.030 5.703-17.664s-2.138-12.768-5.763-17.751l0.060 0.087-158.72-163.84z" />
<glyph unicode="&#xe93d;" glyph-name="major" d="M819.2 960h-614.4l-204.8-204.8v-614.4l204.8-204.8h614.4l204.8 204.8v614.4c-81.92 81.92-128 122.88-204.8 204.8zM734.208 258.56c-2.355-1.921-5.394-3.084-8.704-3.084s-6.349 1.164-8.729 3.104l0.025-0.020-204.8 194.56-204.8-194.56c-5.12-5.12-5.12-5.12-10.24-5.12s-10.24 0-10.24 5.12c-2.427 2.705-3.911 6.299-3.911 10.24s1.484 7.535 3.924 10.254l-0.013-0.014 215.040 204.8c2.705 2.427 6.299 3.911 10.24 3.911s7.535-1.484 10.254-3.924l-0.014 0.013 215.040-204.8c1.743-2.403 2.788-5.41 2.788-8.661 0-4.806-2.283-9.079-5.825-11.792l-0.035-0.026zM787.968 345.6c-4.896-3.565-11.030-5.703-17.664-5.703s-12.768 2.138-17.751 5.763l0.087-0.060-240.64 229.888-241.152-229.888c-4.823-6.137-12.246-10.042-20.581-10.042-5.73 0-11.028 1.845-15.334 4.974l0.075-0.052c-1.97 1.46-3.66 3.15-5.074 5.055l-0.046 0.065c-4.889 5.488-7.877 12.763-7.877 20.736s2.988 15.248 7.904 20.767l-0.027-0.031 261.632 250.368c5.451 4.754 12.627 7.652 20.48 7.652s15.029-2.898 20.517-7.684l-0.037 0.032 261.12-250.88c3.719-4.847 5.96-10.999 5.96-17.674 0-9.479-4.519-17.903-11.521-23.234l-0.071-0.052z" />
<glyph unicode="&#xe93e;" glyph-name="refresh" d="M870.4 806.4c-88.959 94.657-214.963 153.614-354.737 153.614-1.288 0-2.575-0.005-3.86-0.015l0.197 0.001c-0.949 0.006-2.072 0.010-3.195 0.010-282.77 0-512-229.23-512-512s229.23-512 512-512c237.279 0 436.86 161.408 494.934 380.417l0.806 3.573h-134.144c-54.664-148.738-195.094-252.925-359.859-252.925-211.229 0-382.464 171.235-382.464 382.464s171.235 382.464 382.464 382.464c0.513 0 1.025-0.001 1.538-0.003h-0.079c105.687 0 201.057-44.168 268.66-115.053l0.14-0.147-204.8-204.8h448v448z" />
<glyph unicode="&#xe93f;" glyph-name="Phone" d="M205.953 516.651c83.932-161.973 212.724-290.765 369.922-372.44l4.776-2.258 125.249 125.249c10.126 9.297 23.686 14.994 38.577 14.994 7.032 0 13.766-1.271 19.987-3.594l-0.395 0.129c60.541-20.546 130.277-32.432 202.78-32.491h0.028c31.547 0 57.122-25.574 57.122-57.122v0-198.092c0-31.547-25.574-57.122-57.122-57.122v0c-0.001 0-0.002 0-0.002 0-533.992 0-966.878 432.886-966.878 966.878 0 0.738 0.001 1.475 0.002 2.212v-0.116c0 31.547 25.574 57.122 57.122 57.122v0h199.14c0.312 0.006 0.68 0.010 1.048 0.010 31.547 0 57.122-25.574 57.122-57.122 0-0.003 0-0.007 0-0.010v0c-0.025-2.12-0.039-4.624-0.039-7.131 0-70.667 11.326-138.688 32.261-202.348l-1.302 4.574c1.714-5.212 2.702-11.211 2.702-17.441 0-15.902-6.439-30.3-16.852-40.73l0.001 0.001z" />
<glyph unicode="&#xe940;" glyph-name="closed-alarm" d="M904.704 214.016v0l-51.2 54.272c-5.029 5.343-8.137 12.543-8.192 20.469v244.747c0 23.552-28.672 233.472-230.4 289.792h-4.608v34.304c0 56.554-45.846 102.4-102.4 102.4s-102.4-45.846-102.4-102.4v0-30.72h-4.608c-204.8-59.904-230.4-272.384-232.96-296.448v-241.664c-0.028-8.034-3.355-15.285-8.697-20.473l-0.007-0.007-51.2-54.272c-18.43-19.705-29.748-46.263-29.748-75.464 0-1.19 0.019-2.376 0.056-3.557l-0.004 0.172c0-33.367 27.049-60.416 60.416-60.416v0h230.912v-6.656c0-75.217 60.975-136.192 136.192-136.192s136.192 60.975 136.192 136.192v0 6.656h231.936c33.565 0.479 60.589 27.801 60.589 61.434 0 1.624-0.063 3.233-0.187 4.825l0.013-0.211c0.004 0.327 0.006 0.713 0.006 1.1 0 28.132-11.345 53.615-29.708 72.123l0.007-0.007zM563.2 67.584c0-32.519-26.361-58.88-58.88-58.88s-58.88 26.361-58.88 58.88v0l117.76 7.168zM754.176 369.664h-498.176v156.672h499.712z" />
<glyph unicode="&#xe941;" glyph-name="language" d="M874.121 810.121c22.784-22.75 43.466-47.592 61.738-74.217l1.148-1.771c17.474-25.474 33.449-54.595 46.453-85.281l1.236-3.284c11.785-27.242 21.913-59.336 28.781-92.622l0.566-3.28c6.331-31.039 9.955-66.716 9.955-103.238s-3.624-72.199-10.532-106.689l0.577 3.45c-7.434-36.566-17.562-68.66-30.603-99.213l1.256 3.312c-14.336-33.364-30.293-61.953-48.779-88.658l1.090 1.665c-19.42-28.396-40.103-53.237-62.88-75.981l-0.007-0.007c-22.457-22.829-46.959-43.505-73.256-61.779l-1.684-1.108c-25.024-17.228-53.621-33.020-83.746-45.928l-3.246-1.237c-27.125-11.391-59.526-21.67-92.99-29.13l-3.96-0.741c-30.416-6.34-65.368-9.97-101.169-9.97-1.28 0-2.56 0.005-3.838 0.014l0.196-0.001c-70.973 0.442-138.283 15.634-199.176 42.66l3.18-1.26c-63.208 27.46-117.237 64.362-163.036 109.582l0.055-0.054c-45.635 45.731-82.754 99.981-108.763 160.156l-1.288 3.349c-26.163 58.616-41.4 127.021-41.4 198.985 0 0.054 0 0.109 0 0.163v-0.008c-0.003 0.661-0.005 1.443-0.005 2.226 0 70.57 14.652 137.717 41.080 198.567l-1.247-3.224c27.297 63.524 64.416 117.774 110.061 163.514l-0.009-0.009c46.105 45.9 100.674 83.342 161.155 109.776l3.397 1.323c57.625 25.181 124.772 39.833 195.342 39.833 0.783 0 1.565-0.002 2.346-0.005h-0.12c1.082 0.008 2.362 0.013 3.642 0.013 35.8 0 70.753-3.63 104.51-10.541l-3.341 0.572c37.425-8.201 69.826-18.48 100.901-31.317l-3.952 1.446c33.372-14.145 61.969-29.936 88.69-48.264l-1.697 1.1c27.328-19.399 51.315-40.060 73.226-62.739l0.141-0.147zM104.811 640.852v4.716c-10.787-22.279-20.792-48.737-28.505-76.154l-0.842-3.502c-7.412-25.058-12.977-54.484-15.602-84.751l-0.12-1.718h167.173c1.584 30.849 5.139 59.643 10.589 87.761l-0.632-3.912c5.879 30.661 12.768 56.707 21.209 82.043l-1.295-4.484zM61.838 418.129v0c1.806-31.698 7.046-61.407 15.378-89.794l-0.705 2.801c8.662-29.393 18.284-54.248 29.658-78.107l-1.359 3.167h154.072v-4.192c-6.911 20.851-13.8 47.434-19.162 74.566l-0.752 4.566c-4.85 24.687-8.407 54.033-9.897 83.923l-0.060 1.498h-167.173zM415.050 889.777h-3.144c-31.108-7.537-58.005-16.878-83.68-28.45l2.975 1.199c-28.578-12.438-53.023-26.107-75.925-41.857l1.51 0.981c-24.24-16.684-45.454-33.904-65.224-52.632l0.241 0.227c-18.675-19.49-35.905-40.713-51.31-63.282l-1.096-1.701h141.494v3.668c11.68 25.332 23.564 46.64 36.844 66.953l-1.209-1.97c14.839 21.181 29.118 39.453 44.251 56.967l-0.754-0.893c8.504 11.232 16.915 21.139 25.833 30.56l-0.155-0.165c10.481 11.005 19.914 19.914 29.347 28.823zM138.874 198.027v0c32.859-46.309 72.284-85.401 117.409-116.887l1.551-1.025c21.284-14.909 45.562-28.581 71.157-39.807l2.734-1.069c23.368-10.345 51.162-19.698 79.922-26.565l3.403-0.686-28.299 28.299c-8.738 8.919-17.134 18.311-25.089 28.076l-0.59 0.747c-14.375 17.749-28.537 37.582-41.489 58.251l-1.484 2.539c-12.143 18.928-24.877 41.583-36.378 64.953l-1.878 4.222zM482.129 640.852h-160.884v4.716c-8.004-21.216-15.761-47.518-21.763-74.483l-0.771-4.125c-6.071-24.652-10.373-53.538-11.999-83.137l-0.054-1.235h196.52zM482.129 421.797h-194.948c1.873-31.266 5.98-60.344 12.219-88.621l-0.69 3.724c5.834-29.487 13.618-55.291 23.585-79.981l-1.050 2.945h161.932zM482.129 868.815v0c-14.552-11.525-27.542-23.186-39.782-35.589l-0.046-0.046q-17.818-18.866-36.16-40.876v0c-11.005-13.625-20.962-28.299-30.919-42.972s-18.866-30.395-28.299-46.641h136.254zM482.129 194.882h-134.158v-3.144c8.385-14.673 17.818-28.823 27.775-43.496 10.663-15.206 20.985-28.356 31.942-40.938l-0.499 0.585c11.529-13.101 23.582-26.203 35.636-38.78s25.155-25.155 38.78-37.208zM541.871 703.214h134.158v2.62c-9.525 17.392-18.723 31.947-28.7 45.907l0.926-1.363c-10.481 15.198-20.438 29.347-31.443 42.448v0c-11.005 13.625-22.534 26.203-34.588 38.78-11.93 12.168-24.402 23.644-37.444 34.458l-0.812 0.654zM541.871 477.871h194.948c-1.144 30.743-4.905 59.907-11.081 88.168l0.6-3.271c-5.834 29.487-13.618 55.291-23.585 79.981l1.050-2.945h-160.884zM541.871 256.197h161.932v-3.144c8.979 21.943 16.935 48.083 22.538 75.084l0.52 3c6.006 25.25 9.96 54.585 10.985 84.663l0.020 0.758h-194.948zM541.871 29.806v0c13.625 12.053 26.203 24.631 38.78 37.732s24.106 26.727 36.16 41.4v0c10.023 12.24 20.026 25.91 29.285 40.11l1.11 1.815c9.957 14.673 19.39 30.919 28.823 48.213h-133.11v-168.221zM887.222 701.118v0c-16.284 23.885-33.518 44.779-52.457 63.987l0.052-0.053c-19.529 18.501-40.742 35.721-63.214 51.249l-1.769 1.156c-21.559 14.652-46.315 28.641-72.211 40.58l-3.253 1.345c-23.658 10.395-51.664 19.588-80.676 26.126l-3.173 0.601c9.433-8.909 18.342-18.866 27.775-28.299l27.251-30.395c14.237-17.816 28.401-37.819 41.403-58.622l1.569-2.692c10.934-16.902 22.776-37.478 33.65-58.634l1.986-4.252h143.067zM608.95 11.988h3.144c31.025 6.397 58.367 15.438 84.208 27.204l-2.455-1.001c28.389 12.749 52.644 26.574 75.406 42.397l-1.514-0.996c24.031 16.604 45.077 33.824 64.64 52.578l-0.181-0.173c18.606 19.506 35.832 40.726 51.286 63.255l1.119 1.727h-139.398v-4.192c-11.529-22.010-23.582-43.496-36.684-64.459-14.334-22.403-28.656-41.724-44.156-60.016l0.659 0.798c-7.861-9.957-16.246-19.914-25.679-30.395s-18.342-19.39-28.299-28.823zM923.382 258.817v0c11.591 22.235 21.788 48.18 29.214 75.271l0.657 2.813c6.91 25.177 11.94 54.688 14.067 84.999l0.083 1.47h-170.317c-2.255-32.688-6.165-62.503-11.758-91.72l0.753 4.727c-5.637-30.114-12.711-56.155-21.601-81.339l1.163 3.779h154.596zM967.402 477.871v0c-1.766 30.587-6.629 59.234-14.307 86.706l0.682-2.857c-8.004 29.732-17.663 55.334-29.465 79.706l1.166-2.67h-155.644v4.192c7.076-21.387 13.972-48.338 19.229-75.871l0.685-4.309c4.662-24.798 7.683-53.713 8.373-83.204l0.012-0.645h166.125z" />
<glyph unicode="&#xe968;" glyph-name="Delete_icon-delete-copy" horiz-adv-x="797" d="M57.344 49.664c0.289-62.658 51.006-113.375 113.636-113.664h455.196c62.658 0.289 113.375 51.006 113.664 113.636v683.036h-682.496zM796.672 903.168h-199.168l-56.832 56.832h-284.672l-56.832-56.832h-199.168v-113.664h796.672z" />
<glyph unicode="&#xe969;" glyph-name="IoT-icons-edit-59" horiz-adv-x="871" d="M749.481 955.643l-61.004-78.434 122.009-95.864 61.004 78.434c4.357 4.357 4.357 13.072-4.357 17.43l-100.221 78.434c-8.715 4.357-17.43 4.357-17.43 0zM387.813 489.396l-30.502-165.583 152.511 69.719 261.447 335.523-122.009 95.864-261.447-335.523zM644.902 424.034v-418.315c0 0 0 0 0 0h-566.468c0 0 0 0 0 0v139.438c0 139.438 0 274.519 0 413.957 30.502 0 61.004 0 91.506 0h21.787c26.145 0 43.574 8.715 61.004 21.787s26.145 34.86 26.145 56.647v30.502c0 21.787 0 39.217 0 61.004 82.791 0 104.579 0 187.37 0v74.077h-226.587c0 0-161.226-148.153-217.872-196.085-8.715-8.715-13.072-17.43-13.072-26.145 0-26.145 0-56.647 0-82.791v-492.391c0-34.86 21.787-61.004 61.004-69.719h588.255c0 0 17.43 0 30.502 8.715 26.145 13.072 34.86 34.86 34.86 56.647s0 43.574 0 65.362v357.311h-78.434z" />
</font>
</defs>
</svg>
